VERSION	0.00.00	1.03.00
FES_MODE	0
BPM_DEF	125.000	125.000	125.000	125.000
MET_DEF	4	4
RESOLUTION	384
CLK_DEF	384
COMPATIBLE_CODE	MA2

BPM	0	0	125.000
MET	0	0	4	4

TAP	1	0	1
TAP	1	0	6
TAP	1	144	2
TAP	1	192	2
TAP	1	336	3
TAP	2	0	3
TAP	2	144	4
TAP	2	192	4
TAP	2	336	5
TAP	3	0	5
TAP	3	144	4
TAP	3	192	4
TAP	3	336	3
TAP	4	0	3
TAP	4	144	2
TAP	4	192	3
TAP	4	240	4
HLD	5	0	5	72
HLD	5	192	4	72
HLD	6	0	3	72
HLD	6	192	2	72
TAP	6	336	2
HLD	7	0	2	72
HLD	7	192	3	72
HLD	8	0	4	72
HLD	8	192	5	72
TAP	8	312	5
TAP	8	336	5
HLD	9	0	0	72
HLD	9	72	1	72
TAP	9	144	2
HLD	9	192	4	72
HLD	9	264	3	72
TAP	9	336	2
HLD	10	0	1	72
HLD	10	72	2	72
TAP	10	144	3
HLD	10	192	7	72
HLD	10	264	6	72
TAP	10	336	5
HLD	11	0	3	72
HLD	11	72	4	72
TAP	11	144	5
HLD	11	192	6	72
HLD	11	264	5	72
TAP	11	336	4
HLD	12	0	1	72
HLD	12	72	2	72
TAP	12	144	3
HLD	12	192	5	72
BRK	12	264	4
TAP	13	0	3
TAP	13	48	5
TAP	13	96	6
TAP	13	144	5
TAP	13	192	4
TAP	13	240	5
TAP	13	264	5
TAP	14	0	4
TAP	14	48	2
TAP	14	96	1
TAP	14	144	2
TAP	14	192	3
TAP	14	240	2
TAP	14	264	2
TAP	15	0	2
TAP	15	48	3
TAP	15	96	4
TAP	15	144	5
TAP	15	168	4
TAP	15	168	5
TAP	15	216	3
TAP	15	216	4
TAP	15	264	2
TAP	15	264	3
TAP	16	0	1
TAP	16	48	7
TAP	16	96	6
TAP	16	144	7
TAP	16	192	0
TAP	16	240	1
BRK	16	264	1
TAP	16	312	3
TAP	16	336	3
TAP	16	336	4
HLD	17	0	2	72
HLD	17	72	3	72
TAP	17	144	1
TAP	17	192	7
TAP	17	240	5
TAP	17	288	6
TAP	17	312	6
TAP	17	360	6
TAP	18	24	1
TAP	18	48	1
TAP	18	96	1
TAP	18	144	5
TAP	18	192	6
TAP	18	240	3
TAP	18	288	4
TAP	18	312	4
TAP	18	360	3
TAP	19	0	3
TAP	19	48	3
TAP	19	96	6
TAP	19	144	0
TAP	19	192	7
TAP	19	240	1
TAP	19	288	0
TAP	19	288	1
TAP	19	336	7
TAP	20	0	6
TAP	20	0	7
TAP	20	48	0
TAP	20	96	0
TAP	20	96	1
TAP	20	144	7
TAP	20	192	2
TAP	20	192	3
TAP	20	240	4
TAP	20	288	4
TAP	20	288	5
TAP	20	336	3
HLD	21	0	5	72
HLD	21	72	4	72
TAP	21	144	6
TAP	21	192	3
TAP	21	240	0
TAP	21	288	5
TAP	21	312	5
TAP	21	360	5
TAP	22	24	2
TAP	22	48	2
TAP	22	96	2
TAP	22	144	4
TAP	22	192	5
TAP	22	240	1
TAP	22	288	2
TAP	22	312	2
TAP	22	360	5
TAP	23	0	4
TAP	23	0	5
TAP	23	48	3
TAP	23	48	4
TAP	23	96	2
TAP	23	96	3
TAP	23	144	7
TAP	23	192	2
TAP	23	192	3
TAP	23	240	3
TAP	23	240	4
TAP	23	288	4
TAP	23	288	5
TAP	23	336	0
TAP	24	0	6
TAP	24	48	3
TAP	24	96	3
TAP	24	144	1
TAP	24	192	5
TAP	24	240	5
STR	24	288	6
SCR	24	288	6	96	192	4
TAP	26	0	3
TAP	26	0	4
TAP	26	72	3
TAP	26	72	4
TAP	26	168	3
TAP	26	168	4
TAP	26	216	4
TAP	26	240	3
TAP	26	288	2
TAP	26	288	5
TAP	27	0	2
TAP	27	0	3
TAP	27	96	1
TAP	27	168	2
TAP	27	168	3
TAP	27	216	2
TAP	27	240	3
TAP	27	288	1
TAP	27	288	4
TAP	28	0	4
TAP	28	0	5
TAP	28	96	6
TAP	28	168	4
TAP	28	168	5
TAP	28	216	5
TAP	28	240	4
TAP	28	288	3
TAP	28	288	6
TAP	29	0	0
TAP	29	0	7
STR	29	96	0
SSL	29	96	0	96	144	4
TAP	29	96	7
HLD	30	0	5	72
TAP	30	72	4
TAP	30	120	4
TAP	30	144	5
HLD	30	192	5	72
TAP	30	264	4
TAP	30	312	4
TAP	30	336	5
HLD	31	0	2	72
TAP	31	72	3
TAP	31	120	3
TAP	31	144	2
HLD	31	192	2	72
TAP	31	264	3
TAP	31	312	3
TAP	31	336	2
HLD	32	0	5	72
TAP	32	72	4
TAP	32	120	4
TAP	32	144	6
HLD	32	192	5	72
TAP	32	264	4
TAP	32	312	4
TAP	32	336	6
HLD	33	0	2	72
TAP	33	72	3
TAP	33	120	3
TAP	33	144	1
HLD	33	192	2	72
TAP	33	264	3
TAP	33	312	3
BRK	33	336	1
TAP	34	0	4
HLD	34	0	5	72
HLD	34	72	2	72
TAP	34	144	3
HLD	34	192	2	72
TAP	34	192	3
HLD	34	264	5	72
TAP	34	336	4
TAP	35	0	4
HLD	35	0	5	72
HLD	35	72	2	72
TAP	35	144	3
HLD	35	192	2	72
TAP	35	192	3
HLD	35	264	5	72
TAP	35	336	4
TAP	36	0	4
HLD	36	0	5	72
HLD	36	72	1	72
TAP	36	144	2
HLD	36	192	2	72
TAP	36	192	3
HLD	36	264	6	72
TAP	36	336	5
TAP	37	0	4
HLD	37	0	5	72
HLD	37	72	1	72
TAP	37	144	2
HLD	37	192	2	72
TAP	37	192	3
TAP	37	264	3
TAP	37	312	2
TAP	37	336	2
TAP	38	0	5
TAP	38	48	4
TAP	38	96	2
TAP	38	144	4
TAP	38	192	5
TAP	38	240	2
TAP	38	288	3
HLD	39	0	4	72
HLD	39	0	5	72
TAP	39	96	4
TAP	39	96	5
TAP	39	168	2
TAP	39	216	2
TAP	39	240	3
TAP	39	288	3
TAP	40	0	0
TAP	40	48	1
TAP	40	96	7
TAP	40	144	6
TAP	40	192	3
TAP	40	240	4
TAP	40	264	4
TAP	41	0	1
TAP	41	0	3
TAP	41	48	2
TAP	41	48	4
TAP	41	96	2
TAP	41	96	3
TAP	41	168	5
TAP	41	216	5
TAP	41	240	4
TAP	41	288	4
TAP	42	0	7
TAP	42	48	6
STR	42	96	5
SCR	42	96	5	96	192	3
TAP	43	168	5
TAP	43	216	5
TAP	43	240	4
TAP	43	264	5
TAP	44	0	0
TAP	44	48	1
STR	44	96	2
SCL	44	96	2	96	192	4
TAP	45	192	2
TAP	45	216	3
TAP	45	240	2
BRK	45	264	3
TAP	45	312	5
TAP	45	336	4
TAP	45	336	5
HLD	46	0	0	72
HLD	46	72	2	72
TAP	46	144	1
TAP	46	192	2
TAP	46	240	3
TAP	46	288	5
TAP	46	312	5
TAP	46	360	4
TAP	46	360	5
TAP	47	24	7
TAP	47	72	7
TAP	47	120	6
TAP	47	144	6
TAP	47	192	0
TAP	47	240	1
TAP	47	288	2
TAP	47	312	2
TAP	47	360	2
TAP	47	360	3
TAP	48	24	5
TAP	48	48	5
TAP	48	96	2
TAP	48	144	3
TAP	48	192	4
TAP	48	240	5
TAP	48	288	1
TAP	48	312	1
TAP	48	360	0
TAP	48	360	1
TAP	49	24	6
TAP	49	48	6
HLD	49	96	2	144
TAP	49	144	4
TAP	49	192	3
HLD	49	240	5	96
TAP	49	288	3
BRK	49	336	4
HLD	50	0	7	72
HLD	50	72	5	72
TAP	50	144	6
TAP	50	192	5
TAP	50	240	4
TAP	50	288	2
TAP	50	312	2
TAP	50	360	2
TAP	50	360	3
TAP	51	24	0
TAP	51	72	0
TAP	51	120	1
TAP	51	144	1
TAP	51	192	7
TAP	51	240	6
TAP	51	288	5
TAP	51	312	5
TAP	51	360	4
TAP	51	360	5
TAP	52	24	2
TAP	52	48	2
TAP	52	96	5
TAP	52	144	4
TAP	52	192	3
TAP	52	240	2
TAP	52	288	6
TAP	52	312	6
TAP	52	360	6
TAP	52	360	7
TAP	53	24	1
TAP	53	48	1
TAP	53	96	5
TAP	53	144	6
TAP	53	192	7
TAP	53	240	0
STR	53	288	1
SCL	53	288	1	96	1536	2

T_REC_TAP	312
T_REC_BRK	5
T_REC_XTP	0
T_REC_HLD	58
T_REC_XHO	0
T_REC_STR	5
T_REC_BST	0
T_REC_XST	0
T_REC_TTP	0
T_REC_THO	0
T_REC_SLD	5
T_REC_ALL	385
T_NUM_TAP	317
T_NUM_BRK	5
T_NUM_HLD	58
T_NUM_SLD	5
T_NUM_ALL	385
T_JUDGE_TAP	322
T_JUDGE_HLD	117
T_JUDGE_SLD	5
T_JUDGE_ALL	444
TTM_EACHPAIRS	48
TTM_SCR_TAP	158500
TTM_SCR_BRK	13000
TTM_SCR_HLD	58000
TTM_SCR_SLD	7500
TTM_SCR_ALL	237000
TTM_SCR_S	229450
TTM_SCR_SS	236500
TTM_RAT_ACV	10021

