VERSION	0.00.00	1.03.00
FES_MODE	0
BPM_DEF	125.000	125.000	125.000	125.000
MET_DEF	4	4
RESOLUTION	384
CLK_DEF	384
COMPATIBLE_CODE	MA2

BPM	0	0	125.000
MET	0	0	4	4

HLD	1	0	0	288
HLD	2	0	7	288
HLD	3	0	1	288
HLD	4	0	6	288
STR	5	0	1
SI_	5	0	1	96	96	6
STR	6	0	5
SI_	6	0	5	96	96	2
STR	7	0	1
SUR	7	0	1	96	96	6
STR	8	0	5
SUR	8	0	5	96	96	2
HLD	9	0	0	72
HLD	9	192	4	72
HLD	10	0	2	72
HLD	10	192	6	72
HLD	11	0	1	72
HLD	11	192	5	72
HLD	12	0	3	72
HLD	12	192	7	72
TAP	13	0	0
TAP	13	72	0
TAP	13	192	1
TAP	13	264	1
TAP	14	0	2
TAP	14	72	2
TAP	14	192	3
TAP	14	264	3
TAP	15	0	7
TAP	15	72	7
TAP	15	192	6
TAP	15	264	6
TAP	16	0	5
TAP	16	72	5
TAP	16	192	4
BRK	16	264	4
TAP	17	0	0
HLD	17	72	0	72
TAP	17	192	6
HLD	17	264	6	72
TAP	18	0	1
HLD	18	72	1	72
TAP	18	192	7
HLD	18	264	7	72
TAP	19	0	3
HLD	19	72	3	72
TAP	19	192	5
HLD	19	264	5	72
TAP	20	0	2
HLD	20	72	2	72
STR	20	192	4
SI_	20	192	4	96	48	7
TAP	21	0	0
TAP	21	72	0
TAP	21	144	0
TAP	21	192	7
TAP	21	264	7
TAP	21	336	7
TAP	22	0	2
TAP	22	72	2
TAP	22	144	2
TAP	22	192	5
TAP	22	264	5
TAP	22	336	5
TAP	23	0	3
TAP	23	72	3
TAP	23	144	3
TAP	23	192	4
TAP	23	264	4
TAP	23	336	4
TAP	24	0	1
TAP	24	72	1
TAP	24	144	1
STR	24	192	6
SUL	24	192	6	96	384	3
TAP	26	0	0
TAP	26	72	0
TAP	26	288	0
TAP	27	96	2
TAP	27	288	4
TAP	28	0	6
TAP	28	72	6
TAP	28	288	6
TAP	29	96	4
TAP	29	288	2
HLD	30	0	0	288
HLD	31	0	4	288
HLD	32	0	2	288
HLD	33	0	6	288
TAP	34	0	2
TAP	34	0	3
TAP	34	192	2
TAP	34	192	3
TAP	35	0	4
TAP	35	0	5
TAP	35	192	4
TAP	35	192	5
TAP	36	0	0
TAP	36	0	1
TAP	36	192	0
TAP	36	192	1
TAP	37	0	6
TAP	37	0	7
TAP	37	192	6
TAP	37	192	7
TAP	38	0	1
TAP	38	96	0
TAP	38	192	7
TAP	38	288	6
BRK	39	0	0
BRK	39	0	7
TAP	40	0	2
TAP	40	48	2
TAP	40	96	3
TAP	40	144	3
TAP	40	192	4
TAP	40	240	4
BRK	41	0	1
BRK	41	0	6
TAP	42	0	1
TAP	42	96	2
TAP	42	192	3
TAP	42	288	2
TAP	42	288	4
TAP	43	0	6
TAP	43	96	5
TAP	43	192	4
TAP	43	288	3
TAP	43	288	5
STR	44	0	3
SI_	44	0	3	96	48	0
STR	44	192	4
SI_	44	192	4	96	48	7
HLD	45	0	0	192
BRK	45	192	7
BRK	45	264	7
TAP	46	0	0
TAP	46	72	0
TAP	46	144	1
TAP	46	192	7
TAP	46	264	7
TAP	46	336	6
TAP	47	0	0
TAP	47	72	1
TAP	47	144	2
TAP	47	192	7
TAP	47	264	6
TAP	47	336	5
TAP	48	0	1
TAP	48	72	1
TAP	48	144	2
TAP	48	192	6
TAP	48	264	6
TAP	48	336	5
TAP	49	0	1
TAP	49	72	2
TAP	49	144	3
TAP	49	192	6
TAP	49	264	5
TAP	49	336	4
TAP	50	0	2
HLD	50	72	2	72
TAP	50	144	3
TAP	50	192	5
HLD	50	264	5	72
TAP	50	336	4
TAP	51	0	2
HLD	51	72	2	72
TAP	51	144	3
TAP	51	192	5
HLD	51	264	5	72
TAP	51	336	4
TAP	52	0	3
TAP	52	72	3
TAP	52	144	2
TAP	52	144	4
TAP	52	192	4
TAP	52	264	4
TAP	52	336	3
TAP	52	336	5
TAP	53	0	2
TAP	53	72	2
TAP	53	144	1
TAP	53	144	3
TAP	53	192	5
TAP	53	264	5
TAP	53	336	4
TAP	53	336	6
STR	54	0	6
SCR	54	0	6	96	384	2

T_REC_TAP	137
T_REC_BRK	7
T_REC_XTP	0
T_REC_HLD	28
T_REC_XHO	0
T_REC_STR	9
T_REC_BST	0
T_REC_XST	0
T_REC_TTP	0
T_REC_THO	0
T_REC_SLD	9
T_REC_ALL	190
T_NUM_TAP	146
T_NUM_BRK	7
T_NUM_HLD	28
T_NUM_SLD	9
T_NUM_ALL	190
T_JUDGE_TAP	153
T_JUDGE_HLD	90
T_JUDGE_SLD	9
T_JUDGE_ALL	252
TTM_EACHPAIRS	16
TTM_SCR_TAP	73000
TTM_SCR_BRK	18200
TTM_SCR_HLD	28000
TTM_SCR_SLD	13500
TTM_SCR_ALL	132700
TTM_SCR_S	128050
TTM_SCR_SS	132000
TTM_RAT_ACV	10053

