VERSION	0.00.00	1.03.00
FES_MODE	0
BPM_DEF	125.000	125.000	125.000	125.000
MET_DEF	4	4
RESOLUTION	384
CLK_DEF	384
COMPATIBLE_CODE	MA2

BPM	0	0	125.000
MET	0	0	4	4

TAP	1	0	0
TAP	3	0	0
TAP	5	0	0
TAP	5	192	0
TAP	6	0	0
TAP	7	0	1
TAP	7	192	1
TAP	8	0	1
TAP	9	0	2
TAP	9	192	2
TAP	10	0	3
TAP	10	192	3
TAP	11	0	4
TAP	11	192	4
TAP	12	0	5
TAP	12	192	5
TAP	13	0	6
TAP	13	0	7
TAP	13	192	6
TAP	14	0	7
TAP	14	192	0
TAP	15	0	0
TAP	15	0	1
TAP	15	192	1
TAP	16	0	0
BRK	16	192	7
TAP	17	0	6
TAP	17	192	6
TAP	18	0	4
TAP	18	192	4
TAP	19	0	2
TAP	19	192	2
TAP	20	0	0
TAP	20	96	0
BRK	20	192	0
TAP	21	0	1
TAP	21	192	1
TAP	22	0	3
TAP	22	192	3
TAP	23	0	5
TAP	23	192	5
TAP	24	0	7
TAP	24	96	7
TAP	24	192	0
TAP	24	288	0
STR	25	0	0
SI_	25	0	0	96	192	3
TAP	28	0	4
TAP	28	0	5
TAP	29	0	2
TAP	29	0	3
STR	30	0	1
SI_	30	0	1	96	192	4
TAP	31	192	6
STR	32	0	6
SI_	32	0	6	96	192	3
TAP	33	192	1
TAP	34	0	0
TAP	34	0	1
TAP	34	192	0
TAP	34	192	1
TAP	35	0	2
TAP	35	0	3
TAP	35	192	2
TAP	35	192	3
TAP	36	0	4
TAP	36	0	5
TAP	36	192	4
TAP	36	192	5
TAP	37	0	6
TAP	37	0	7
TAP	37	192	6
TAP	37	192	7
TAP	38	0	0
TAP	38	96	0
TAP	38	192	0
HLD	39	0	1	192
TAP	40	0	7
TAP	40	96	7
TAP	40	192	7
HLD	41	0	6	192
TAP	42	0	5
TAP	42	96	5
HLD	42	192	5	192
TAP	43	192	3
TAP	43	192	4
TAP	44	0	2
TAP	44	96	2
HLD	44	192	2	192
BRK	45	192	3
BRK	45	192	4
TAP	46	0	5
TAP	46	96	5
TAP	46	192	6
TAP	47	0	6
TAP	47	96	6
TAP	47	192	7
TAP	48	0	7
TAP	48	96	7
TAP	48	192	0
TAP	49	0	0
TAP	49	96	0
TAP	49	192	7
BRK	49	288	7
TAP	50	0	0
TAP	50	96	0
TAP	50	192	1
TAP	51	0	1
TAP	51	96	1
TAP	51	192	2
TAP	52	0	2
TAP	52	96	2
TAP	52	192	3
TAP	53	0	3
TAP	53	96	3
TAP	53	192	4
TAP	53	288	4
STR	54	0	5
SI_	54	0	5	96	192	2
STR	56	0	1
SI_	56	0	1	96	192	6

T_REC_TAP	102
T_REC_BRK	5
T_REC_XTP	0
T_REC_HLD	4
T_REC_XHO	0
T_REC_STR	5
T_REC_BST	0
T_REC_XST	0
T_REC_TTP	0
T_REC_THO	0
T_REC_SLD	5
T_REC_ALL	121
T_NUM_TAP	107
T_NUM_BRK	5
T_NUM_HLD	4
T_NUM_SLD	5
T_NUM_ALL	121
T_JUDGE_TAP	112
T_JUDGE_HLD	16
T_JUDGE_SLD	5
T_JUDGE_ALL	133
TTM_EACHPAIRS	14
TTM_SCR_TAP	53500
TTM_SCR_BRK	13000
TTM_SCR_HLD	4000
TTM_SCR_SLD	7500
TTM_SCR_ALL	78000
TTM_SCR_S	75200
TTM_SCR_SS	77500
TTM_RAT_ACV	10064

