VERSION	0.00.00	1.03.00
FES_MODE	0
BPM_DEF	175.000	175.000	175.000	175.000
MET_DEF	4	4
RESOLUTION	384
CLK_DEF	384
COMPATIBLE_CODE	MA2

BPM	0	0	175.000

TAP	3	0	4
TAP	3	96	1
TAP	3	96	7
TAP	3	192	3
TAP	3	216	4
TAP	3	240	3
TAP	3	288	7
TAP	3	336	7
BRK	4	0	0
BRK	4	0	6
TAP	4	96	3
TAP	4	192	1
TAP	4	192	5
STR	4	240	1
SI_	4	240	1	96	48	3
STR	4	240	5
SI_	4	240	5	96	48	7
TAP	4	336	1
TAP	4	336	5
TAP	5	48	0
TAP	5	96	0
TAP	5	192	3
TAP	5	192	5
TAP	5	288	1
TAP	5	288	7
HLD	6	0	2	96
HLD	6	0	3	96
TAP	6	144	1
TAP	6	144	4
TAP	6	240	0
TAP	6	240	5
HLD	6	336	6	144
TAP	6	336	7
TAP	7	48	5
TAP	7	96	5
BST	7	192	3
SV_	7	192	3	96	48	0
SV_	7	192	3	96	48	6
TAP	7	192	7
TAP	8	0	1
TAP	8	0	5
TAP	8	96	4
TAP	8	192	2
TAP	8	192	6
STR	8	240	2
SI_	8	240	2	96	48	0
STR	8	240	6
SI_	8	240	6	96	48	4
TAP	8	336	2
TAP	8	336	6
TAP	9	48	7
TAP	9	96	7
TAP	9	192	2
TAP	9	192	4
TAP	9	288	0
TAP	9	288	6
TAP	10	0	7
TAP	10	24	0
TAP	10	48	7
TAP	10	72	0
TAP	10	96	6
TAP	10	120	1
TAP	10	144	6
TAP	10	168	1
TAP	10	192	5
TAP	10	216	2
TAP	10	240	5
TAP	10	264	2
TAP	10	288	4
TAP	10	312	3
TAP	10	336	4
TAP	10	360	3
STR	11	0	4
SI_	11	0	4	96	48	0
TAP	11	96	3
TAP	11	96	4
TAP	11	192	3
TAP	11	216	4
TAP	11	240	3
BRK	11	288	1
BRK	11	288	6
STR	12	0	3
SI_	12	0	3	96	48	1
STR	12	0	7
SI_	12	0	7	96	48	5
STR	12	96	7
SI_	12	96	7	96	48	3
TAP	12	192	7
TAP	12	240	2
TAP	12	288	1
TAP	12	336	0
TAP	13	0	6
TAP	13	0	7
STR	13	48	6
SI_	13	48	6	96	48	4
STR	13	48	7
SI_	13	48	7	96	48	3
TAP	13	144	6
TAP	13	144	7
TAP	13	240	1
TAP	13	288	0
HLD	13	336	1	96
TAP	14	48	5
TAP	14	96	4
HLD	14	144	5	96
TAP	14	240	1
TAP	14	264	1
TAP	14	288	0
TAP	14	336	1
TAP	15	0	7
STR	15	48	7
SI_	15	48	7	96	48	3
STR	15	144	7
SCL	15	144	7	96	72	4
SCR	15	144	7	96	72	2
TAP	15	240	7
HLD	16	0	6	96
TAP	16	48	7
HLD	16	96	1	96
TAP	16	144	0
HLD	16	192	5	96
TAP	16	240	7
HLD	16	288	2	96
TAP	16	336	0
TAP	17	0	4
TAP	17	48	3
STR	17	48	4
SI_	17	48	4	96	48	0
TAP	17	144	3
TAP	17	144	4
TAP	17	240	1
TAP	17	288	2
HLD	17	336	3	96
TAP	18	48	5
TAP	18	96	4
TAP	18	96	5
TAP	18	144	1
TAP	18	192	0
TAP	18	192	1
TAP	18	240	6
TAP	18	288	6
TAP	18	288	7
STR	18	336	3
SCL	18	336	3	96	96	7
TAP	19	0	3
STR	19	48	7
SCL	19	48	7	96	96	3
TAP	19	144	3
TAP	19	240	7
BRK	19	288	7
STR	20	0	2
SI_	20	0	2	96	48	0
STR	20	0	6
SI_	20	0	6	96	48	4
STR	20	96	6
SI_	20	96	6	96	48	2
TAP	20	192	6
TAP	20	240	0
TAP	20	288	7
TAP	20	336	6
TAP	21	0	4
TAP	21	0	5
STR	21	48	4
SI_	21	48	4	96	48	0
STR	21	48	5
SI_	21	48	5	96	48	7
TAP	21	144	4
TAP	21	144	5
TAP	21	240	2
TAP	21	288	3
HLD	21	336	2	96
TAP	22	48	6
TAP	22	96	7
HLD	22	144	6	96
TAP	22	240	2
TAP	22	264	2
TAP	22	288	3
TAP	22	336	2
TAP	23	0	5
STR	23	48	4
SUR	23	48	4	96	144	3
STR	23	48	5
SCR	23	48	5	96	144	2
TAP	23	144	4
TAP	23	144	5
HLD	24	0	1	96
TAP	24	48	0
HLD	24	96	6	96
TAP	24	144	7
HLD	24	192	2	96
TAP	24	240	0
HLD	24	288	5	96
TAP	24	336	7
TAP	25	0	3
STR	25	48	3
SI_	25	48	3	96	48	7
TAP	25	48	4
TAP	25	144	3
TAP	25	144	4
TAP	25	240	6
TAP	25	288	5
HLD	25	336	4	96
TAP	26	48	2
TAP	26	96	2
TAP	26	96	3
TAP	26	144	6
TAP	26	192	6
TAP	26	192	7
TAP	26	240	1
TAP	26	288	0
TAP	26	288	1
STR	26	336	4
SCR	26	336	4	96	96	0
STR	27	48	0
SCR	27	48	0	96	96	4
TAP	27	144	4
TAP	27	240	0
TAP	27	288	0
TAP	28	0	0
TAP	28	0	7
TAP	28	192	3
TAP	28	216	3
TAP	28	240	3
BRK	28	288	2
BRK	28	288	4
HLD	29	0	7	96
TAP	29	144	1
TAP	29	144	3
TAP	29	240	4
TAP	29	240	5
TAP	29	336	0
TAP	29	336	2
TAP	30	96	4
TAP	30	120	3
TAP	30	144	4
TAP	30	168	3
HLD	30	192	5	48
HLD	30	240	6	48
HLD	30	288	7	96
HLD	31	0	3	96
TAP	31	144	0
TAP	31	144	2
TAP	31	240	6
TAP	31	240	7
TAP	31	336	1
STR	31	336	3
SCR	31	336	3	96	48	6
TAP	32	48	7
STR	32	96	7
SCR	32	96	7	96	48	2
TAP	32	192	3
STR	32	240	3
SI_	32	240	3	96	48	7
HLD	33	0	0	96
TAP	33	144	4
TAP	33	144	6
TAP	33	240	2
TAP	33	240	3
TAP	33	336	5
TAP	33	336	7
TAP	34	96	3
TAP	34	120	4
TAP	34	144	3
TAP	34	168	4
HLD	34	192	2	48
TAP	34	240	0
HLD	34	288	5	48
TAP	34	336	7
HLD	35	0	3	96
TAP	35	144	0
TAP	35	144	2
TAP	35	240	6
TAP	35	240	7
STR	35	336	0
SXL	35	336	0	96	240	3
STR	35	336	4
SXL	35	336	4	96	240	7
BRK	37	0	1
BRK	37	0	5
TAP	37	96	2
TAP	37	96	7
TAP	37	192	5
TAP	37	240	4
TAP	37	288	5
TAP	37	336	4
TAP	38	48	1
TAP	38	48	7
TAP	38	144	6
TAP	38	144	7
STR	38	192	0
SI_	38	192	0	96	60	4
STR	38	192	5
SI_	38	192	5	96	60	1
TAP	38	288	0
TAP	38	288	5
TAP	39	96	0
TAP	39	96	5
TAP	39	192	2
TAP	39	240	3
TAP	39	288	2
TAP	39	336	3
TAP	40	48	0
TAP	40	48	6
TAP	40	144	0
TAP	40	144	1
STR	40	192	2
SI_	40	192	2	96	60	6
STR	40	192	7
SI_	40	192	7	96	60	3
TAP	40	288	2
TAP	40	288	7
TAP	41	48	1
TAP	41	96	0
TAP	41	144	7
TAP	41	192	6
HLD	41	240	5	96
TAP	41	336	4
HLD	42	0	4	96
TAP	42	96	3
HLD	42	144	3	96
TAP	42	240	2
HLD	42	288	2	96
TAP	43	0	0
TAP	43	96	2
TAP	43	96	7
TAP	43	192	5
TAP	43	240	4
TAP	43	288	5
TAP	43	336	4
STR	44	48	3
SXR	44	48	3	96	144	3
STR	44	48	7
SXR	44	48	7	96	144	7
BRK	44	144	3
BRK	44	144	7
TAP	45	0	4
TAP	45	0	5
TAP	45	96	1
TAP	45	96	7
TAP	45	192	5
TAP	45	240	4
TAP	45	288	3
TAP	45	288	7
TAP	46	0	2
TAP	46	0	3
TAP	46	96	0
TAP	46	96	6
TAP	46	192	2
TAP	46	240	3
TAP	46	288	0
TAP	46	288	4
TAP	47	0	3
STR	47	0	4
SI_	47	0	4	96	48	7
SUR	47	0	4	96	48	1
STR	47	192	2
SLL	47	192	2	96	96	4
STR	47	192	5
SLR	47	192	5	96	96	3
TAP	48	48	2
TAP	48	48	7
TAP	48	96	0
TAP	48	96	5
TAP	48	144	2
TAP	48	144	7
TAP	48	240	0
TAP	48	240	7
STR	48	288	0
SI_	48	288	0	96	48	4
STR	48	288	7
SI_	48	288	7	96	48	1
BRK	49	0	0
BRK	49	0	7
TAP	49	96	0
TAP	49	96	6
TAP	49	192	2
TAP	49	240	3
TAP	49	288	0
TAP	49	288	4
TAP	50	0	4
TAP	50	0	5
TAP	50	96	1
TAP	50	96	7
TAP	50	192	5
TAP	50	240	4
TAP	50	288	3
TAP	50	288	7
STR	51	0	0
SI_	51	0	0	96	48	4
HLD	51	0	6	96
HLD	51	192	2	96
STR	51	192	7
SI_	51	192	7	96	48	4
STR	52	0	1
SI_	52	0	1	96	48	4
HLD	52	0	5	96
STR	52	192	0
SI_	52	192	0	96	48	4
HLD	52	192	3	96
TAP	53	0	0
TAP	53	0	1
TAP	53	96	2
TAP	53	96	7
TAP	53	192	5
TAP	53	240	4
TAP	53	288	3
TAP	53	288	6
TAP	54	0	6
TAP	54	0	7
TAP	54	96	0
TAP	54	96	5
TAP	54	192	2
TAP	54	240	3
STR	54	288	1
SLL	54	288	1	96	96	3
STR	54	288	4
SLR	54	288	4	96	96	2
TAP	55	0	1
TAP	55	0	4
STR	55	192	5
SXL	55	192	5	96	96	4
TAP	56	96	2
TAP	56	96	3
TAP	56	144	6
TAP	56	144	7
TAP	56	240	4
TAP	56	240	5
STR	56	288	0
SI_	56	288	0	96	48	4
STR	56	288	1
SV_	56	288	1	96	48	3
BRK	57	0	0
BRK	57	0	1
TAP	57	96	0
TAP	57	96	5
TAP	57	192	2
TAP	57	240	3
TAP	57	288	1
TAP	57	288	4
TAP	58	0	0
TAP	58	0	1
TAP	58	96	2
TAP	58	96	7
TAP	58	192	5
TAP	58	240	4
TAP	58	288	3
TAP	58	288	6
STR	59	0	6
SI_	59	0	6	96	36	3
STR	59	0	7
SI_	59	0	7	96	36	2
STR	59	192	0
SI_	59	192	0	96	36	5
STR	59	192	1
SI_	59	192	1	96	36	4
STR	60	0	3
SI_	60	0	3	96	36	0
STR	60	0	4
SI_	60	0	4	96	36	7
TAP	60	192	3
TAP	60	216	4
TAP	60	240	3
BRK	60	288	1
BRK	60	288	6
STR	61	0	3
SI_	61	0	3	96	48	1
STR	61	0	7
SI_	61	0	7	96	48	5
STR	61	96	7
SI_	61	96	7	96	48	3
TAP	61	192	7
TAP	61	240	2
TAP	61	288	1
TAP	61	336	0
TAP	62	0	6
TAP	62	0	7
STR	62	48	6
SI_	62	48	6	96	48	2
HLD	62	48	7	96
TAP	62	144	6
TAP	62	240	1
TAP	62	288	0
HLD	62	336	1	96
TAP	63	48	5
TAP	63	96	4
HLD	63	144	5	96
TAP	63	240	1
TAP	63	264	1
TAP	63	288	0
TAP	63	336	1
TAP	64	0	7
STR	64	48	7
SI_	64	48	7	96	48	3
STR	64	144	7
SCL	64	144	7	96	72	4
SCR	64	144	7	96	72	2
TAP	64	240	7
HLD	65	0	6	96
TAP	65	48	7
HLD	65	96	1	96
TAP	65	144	0
HLD	65	192	5	96
TAP	65	240	7
HLD	65	288	2	96
TAP	65	336	0
TAP	66	0	4
TAP	66	48	3
STR	66	48	4
SXR	66	48	4	96	144	7
TAP	66	144	3
TAP	66	144	4
TAP	66	288	0
TAP	67	0	0
TAP	67	24	7
TAP	67	48	0
TAP	67	72	7
TAP	67	96	1
TAP	67	120	6
TAP	67	144	1
TAP	67	168	6
TAP	67	192	2
TAP	67	216	5
TAP	67	240	2
TAP	67	264	5
TAP	67	288	3
TAP	67	312	4
TAP	67	336	3
TAP	67	360	4
STR	68	0	3
SI_	68	0	3	96	48	7
TAP	68	96	3
TAP	68	96	4
TAP	68	192	4
TAP	68	216	3
TAP	68	240	4
BRK	68	288	1
BRK	68	288	6
STR	69	0	2
SI_	69	0	2	96	48	0
STR	69	0	6
SI_	69	0	6	96	48	4
STR	69	96	6
SI_	69	96	6	96	48	2
TAP	69	192	6
TAP	69	240	0
TAP	69	288	7
TAP	69	336	6
TAP	70	0	4
TAP	70	0	5
STR	70	48	4
SI_	70	48	4	96	48	0
HLD	70	48	5	96
TAP	70	144	4
TAP	70	240	6
TAP	70	288	7
HLD	70	336	6	96
TAP	71	48	2
TAP	71	96	3
HLD	71	144	2	96
TAP	71	240	6
TAP	71	264	6
TAP	71	288	7
TAP	71	336	6
TAP	72	0	6
TAP	72	0	7
BST	72	48	6
SLL	72	48	6	96	48	2
TAP	72	48	7
BST	72	144	1
SLR	72	144	1	96	96	7
TAP	72	144	6
TAP	72	240	1
TAP	72	240	5
TAP	72	288	5
HLD	73	0	3	96
TAP	73	48	5
HLD	73	96	4	96
TAP	73	144	2
HLD	73	192	3	96
TAP	73	240	6
HLD	73	288	4	96
TAP	73	336	1
TAP	74	0	3
STR	74	48	3
SXL	74	48	3	96	144	0
TAP	74	48	4
TAP	74	144	3
TAP	74	144	4
TAP	74	288	7
TAP	75	0	4
TAP	75	24	3
TAP	75	48	4
TAP	75	72	3
TAP	75	96	5
TAP	75	120	2
TAP	75	144	5
TAP	75	168	2
TAP	75	192	6
TAP	75	216	1
TAP	75	240	6
TAP	75	264	1
TAP	75	288	7
TAP	75	312	0
TAP	75	336	7
TAP	75	360	0
TAP	76	0	7
TAP	76	96	3
TAP	76	96	4
TAP	76	192	2
TAP	76	192	6
TAP	76	240	1
TAP	76	240	5
STR	76	288	0
SXL	76	288	0	96	288	4
STR	76	288	4
SXL	76	288	4	96	288	0
TAP	77	0	0
TAP	77	0	4
HLD	78	0	6	96
TAP	78	48	7
HLD	78	96	1	96
TAP	78	144	0
TAP	78	192	6
TAP	78	240	2
TAP	78	264	3
TAP	78	312	5
TAP	78	336	4
TAP	79	0	3
TAP	79	24	4
TAP	79	48	2
TAP	79	72	5
TAP	79	96	1
TAP	79	120	6
STR	79	144	0
SCR	79	144	0	96	96	4
TAP	79	240	5
TAP	79	288	6
TAP	79	336	7
TAP	80	0	0
TAP	80	48	1
TAP	80	48	7
TAP	80	96	2
TAP	80	96	6
TAP	80	144	5
TAP	80	168	4
TAP	80	192	6
TAP	80	216	3
TAP	80	240	4
TAP	80	264	1
HLD	80	288	3	48
TAP	80	336	2
TAP	81	0	1
TAP	81	0	5
TAP	81	48	2
TAP	81	48	6
TAP	81	96	3
TAP	81	96	7
STR	81	144	0
SUL	81	144	0	96	72	3
STR	81	144	4
SUL	81	144	4	96	72	7
TAP	81	240	0
TAP	81	240	4
TAP	82	0	6
TAP	82	32	7
TAP	82	64	5
TAP	82	96	1
TAP	82	128	0
TAP	82	160	2
HLD	82	192	7	96
TAP	82	240	1
HLD	82	288	3	96
TAP	82	336	5
TAP	83	0	7
TAP	83	24	0
TAP	83	48	7
TAP	83	72	0
TAP	83	96	6
TAP	83	120	6
TAP	83	144	2
TAP	83	168	2
TAP	83	192	4
TAP	83	240	3
TAP	83	240	5
TAP	83	288	2
TAP	83	288	6
TAP	83	336	1
TAP	83	336	7
TAP	84	0	0
TAP	84	24	7
HLD	84	48	1	48
HLD	84	96	2	48
TAP	84	144	3
TAP	84	192	7
TAP	84	216	0
HLD	84	240	6	48
HLD	84	288	5	48
TAP	84	336	4
TAP	85	0	0
TAP	85	48	6
TAP	85	72	7
TAP	85	120	1
TAP	85	144	0
BRK	85	192	3
BRK	85	192	4
TAP	85	240	2
TAP	85	264	3
TAP	85	288	2
TAP	85	312	3
TAP	85	336	2
TAP	85	360	3
STR	86	0	2
SCL	86	0	2	96	48	7
STR	86	96	3
SUL	86	96	3	96	48	6
TAP	86	192	4
TAP	86	240	4
TAP	86	288	5
TAP	86	336	5
TAP	87	0	3
TAP	87	0	6
STR	87	48	3
SCL	87	48	3	96	48	0
STR	87	48	6
SCL	87	48	6	96	48	3
TAP	87	144	3
TAP	87	144	6
TAP	87	240	6
TAP	87	288	7
TAP	87	336	0
HLD	87	336	5	96
TAP	88	48	2
TAP	88	96	3
HLD	88	144	1	96
TAP	88	144	4
TAP	88	240	6
TAP	88	264	6
TAP	88	288	7
TAP	88	336	6
TAP	89	0	1
TAP	89	0	5
STR	89	48	3
SI_	89	48	3	96	48	7
TAP	89	48	7
BST	89	144	3
SXL	89	144	3	96	72	3
SXR	89	144	3	96	72	3
BRK	89	240	3
TAP	90	0	0
TAP	90	0	6
TAP	90	48	7
TAP	90	96	1
TAP	90	96	7
TAP	90	144	0
TAP	90	192	0
TAP	90	192	5
TAP	90	240	7
TAP	90	288	2
TAP	90	288	7
TAP	90	336	0
TAP	91	0	0
TAP	91	0	4
STR	91	48	0
SCR	91	48	0	96	48	3
STR	91	48	4
SCR	91	48	4	96	48	7
TAP	91	144	0
TAP	91	144	4
TAP	91	240	5
TAP	91	288	4
HLD	91	336	5	144
TAP	92	48	0
HLD	92	96	2	96
TAP	92	144	7
HLD	92	192	5	96
TAP	92	240	0
HLD	92	288	2	96
TAP	92	336	7
TAP	93	0	5
STR	93	48	1
SCR	93	48	1	96	72	4
STR	93	48	5
SCR	93	48	5	96	72	0
TAP	93	144	1
TAP	93	144	5
BRK	93	288	2
BRK	93	288	6
STR	94	0	5
SCR	94	0	5	96	48	0
STR	94	96	4
SUR	94	96	4	96	48	1
TAP	94	192	3
TAP	94	240	3
TAP	94	288	2
TAP	94	336	2
TAP	95	0	1
TAP	95	0	4
STR	95	48	1
SCR	95	48	1	96	48	4
STR	95	48	4
SCR	95	48	4	96	48	7
TAP	95	144	1
TAP	95	144	4
TAP	95	240	1
TAP	95	288	0
HLD	95	336	2	96
TAP	95	336	7
TAP	96	48	5
TAP	96	72	5
TAP	96	96	4
TAP	96	144	3
HLD	96	144	6	96
TAP	96	240	1
TAP	96	288	0
TAP	96	336	7
TAP	97	0	2
TAP	97	0	6
TAP	97	48	1
TAP	97	48	5
TAP	97	96	0
TAP	97	96	4
STR	97	144	3
SUR	97	144	3	96	72	0
STR	97	144	7
SUR	97	144	7	96	72	4
TAP	97	240	3
TAP	97	240	7
TAP	98	0	1
TAP	98	0	7
TAP	98	48	0
TAP	98	96	0
TAP	98	96	6
TAP	98	144	7
TAP	98	192	2
TAP	98	192	7
TAP	98	240	0
TAP	98	288	0
TAP	98	288	5
TAP	98	336	7
TAP	99	0	3
TAP	99	0	7
STR	99	48	3
SCL	99	48	3	96	72	0
STR	99	48	7
SCL	99	48	7	96	72	4
TAP	99	144	3
TAP	99	144	7
BRK	99	288	2
BRK	99	288	3
TAP	100	0	5
TAP	100	24	4
TAP	100	48	5
TAP	100	72	4
TAP	100	96	6
TAP	100	120	3
TAP	100	144	6
TAP	100	168	3
TAP	100	192	7
TAP	100	216	2
TAP	100	240	7
TAP	100	264	2
TAP	100	288	0
TAP	100	312	1
TAP	100	336	0
TAP	100	360	1
STR	101	0	0
SF_	101	0	0	96	48	4
TAP	101	96	0
TAP	101	192	1
TAP	101	192	7
TAP	101	240	2
TAP	101	240	6
TAP	101	288	3
TAP	101	288	5
TAP	102	0	3
BST	102	0	4
SI_	102	0	4	96	384	0
TAP	103	0	3
TAP	103	48	3
TAP	103	96	3
TAP	103	144	3
TAP	103	192	4
TAP	103	216	4
TAP	103	240	4
BRK	103	288	1
BRK	103	288	7
TAP	104	0	3
TAP	104	0	5

T_REC_TAP	596
T_REC_BRK	28
T_REC_XTP	0
T_REC_HLD	65
T_REC_XHO	0
T_REC_STR	92
T_REC_BST	5
T_REC_XST	0
T_REC_TTP	0
T_REC_THO	0
T_REC_SLD	102
T_REC_ALL	888
T_NUM_TAP	688
T_NUM_BRK	33
T_NUM_HLD	65
T_NUM_SLD	102
T_NUM_ALL	888
T_JUDGE_TAP	721
T_JUDGE_HLD	123
T_JUDGE_SLD	102
T_JUDGE_ALL	946
TTM_EACHPAIRS	185
TTM_SCR_TAP	344000
TTM_SCR_BRK	85800
TTM_SCR_HLD	65000
TTM_SCR_SLD	153000
TTM_SCR_ALL	647800
TTM_SCR_S	625200
TTM_SCR_SS	644500
TTM_RAT_ACV	10051

