VERSION	0.00.00	1.03.00
FES_MODE	0
BPM_DEF	175.000	175.000	175.000	175.000
MET_DEF	4	4
RESOLUTION	384
CLK_DEF	384
COMPATIBLE_CODE	MA2

BPM	0	0	175.000

HLD	4	0	2	288
TAP	4	96	3
TAP	4	192	3
TAP	4	288	3
HLD	5	0	5	288
TAP	5	96	4
TAP	5	192	4
TAP	5	288	4
HLD	6	0	2	288
TAP	6	96	3
TAP	6	192	3
TAP	6	288	3
HLD	7	0	5	96
TAP	7	96	4
TAP	7	192	3
TAP	7	192	6
TAP	7	288	0
TAP	7	288	7
HLD	8	0	5	288
TAP	8	96	4
TAP	8	192	4
TAP	8	288	4
HLD	9	0	2	288
TAP	9	96	3
TAP	9	192	3
TAP	9	288	3
HLD	10	0	5	288
TAP	10	96	4
TAP	10	192	4
TAP	10	288	4
HLD	11	0	2	96
TAP	11	96	3
TAP	11	192	1
TAP	11	192	4
TAP	11	288	3
BRK	11	288	6
TAP	12	0	2
TAP	12	0	5
TAP	12	96	0
TAP	12	96	7
TAP	12	192	4
TAP	12	192	6
TAP	12	288	3
TAP	12	288	4
STR	13	0	1
SUR	13	0	1	96	96	6
TAP	13	0	3
TAP	13	288	0
TAP	13	288	7
HLD	14	0	1	96
TAP	14	0	3
TAP	14	96	2
TAP	14	192	4
HLD	14	192	6	96
TAP	14	288	5
HLD	15	0	2	240
HLD	15	0	7	96
BRK	15	144	0
BRK	15	240	1
TAP	16	0	7
TAP	16	96	0
TAP	16	192	6
TAP	16	288	1
STR	17	0	4
SCL	17	0	4	96	96	1
STR	17	0	5
SCR	17	0	5	96	96	0
TAP	17	288	0
TAP	17	288	7
STR	18	0	6
SCL	18	0	6	96	96	2
STR	18	192	0
SCR	18	192	0	96	96	4
TAP	19	0	6
HLD	19	48	6	96
TAP	19	144	7
TAP	19	240	1
TAP	19	240	4
TAP	19	288	1
TAP	19	288	4
TAP	20	0	2
TAP	20	0	7
TAP	20	96	0
TAP	20	96	1
HLD	20	192	6	96
STR	20	288	5
SCL	20	288	5	96	96	2
BRK	21	144	7
TAP	22	0	2
TAP	22	0	3
TAP	22	96	4
TAP	22	96	5
TAP	22	192	0
TAP	22	192	2
TAP	22	288	5
TAP	22	288	7
TAP	23	0	1
TAP	23	0	6
STR	23	48	1
SI_	23	48	1	96	96	5
STR	23	48	6
SI_	23	48	6	96	96	2
TAP	24	0	3
HLD	24	0	6	96
TAP	24	96	5
HLD	24	192	1	96
TAP	24	192	4
TAP	24	288	2
TAP	25	0	3
HLD	25	0	6	96
TAP	25	96	5
TAP	25	192	2
TAP	25	192	3
TAP	25	288	1
TAP	25	288	4
TAP	26	0	4
TAP	26	0	5
TAP	26	96	3
TAP	26	96	6
TAP	26	192	2
TAP	26	192	7
TAP	26	288	0
TAP	26	288	1
TAP	27	0	6
TAP	27	0	7
TAP	27	96	0
TAP	27	96	1
TAP	27	192	6
TAP	27	192	7
STR	27	288	0
SUR	27	288	0	96	288	3
TAP	27	288	5
TAP	29	0	2
TAP	29	96	1
TAP	29	96	3
TAP	29	192	5
TAP	29	288	4
TAP	29	288	6
TAP	30	0	2
TAP	30	96	1
TAP	30	96	3
TAP	30	192	6
TAP	30	192	7
TAP	30	288	6
TAP	30	288	7
TAP	31	0	1
TAP	31	96	0
TAP	31	96	1
TAP	31	192	6
TAP	31	288	6
TAP	31	288	7
HLD	31	336	6	96
HLD	31	336	7	96
HLD	32	96	0	96
HLD	32	96	1	96
HLD	32	240	3	96
HLD	32	240	4	96
TAP	33	0	5
TAP	33	96	4
TAP	33	96	6
TAP	33	192	2
TAP	33	288	1
TAP	33	288	3
TAP	34	0	5
TAP	34	96	4
TAP	34	96	6
TAP	34	192	0
TAP	34	192	1
TAP	34	288	0
TAP	34	288	1
TAP	35	0	6
TAP	35	96	6
TAP	35	96	7
TAP	35	192	1
TAP	35	288	0
TAP	35	288	1
STR	36	0	0
SXL	36	0	0	96	192	3
STR	36	0	7
SXR	36	0	7	96	192	4
TAP	37	0	4
HLD	37	0	5	96
TAP	37	96	6
HLD	37	192	2	96
TAP	37	192	3
TAP	37	288	1
HLD	38	0	5	96
TAP	38	96	2
TAP	38	192	6
TAP	38	192	7
TAP	38	288	0
TAP	38	288	1
HLD	39	0	2	96
TAP	39	0	3
TAP	39	96	0
TAP	39	192	4
HLD	39	192	5	96
TAP	39	288	7
STR	40	0	2
SCL	40	0	2	96	96	5
TAP	40	0	3
TAP	40	288	0
TAP	40	288	7
TAP	41	0	3
TAP	41	0	4
TAP	41	96	1
TAP	41	96	6
TAP	41	192	2
HLD	41	240	2	96
TAP	41	336	0
HLD	42	0	0	96
TAP	42	96	7
HLD	42	144	7	96
TAP	42	240	5
HLD	42	288	5	96
HLD	43	0	1	96
TAP	43	96	2
HLD	43	192	6	96
TAP	43	288	5
BST	44	0	3
SUR	44	0	3	96	144	4
HLD	45	0	5	96
HLD	45	96	4	96
TAP	45	192	3
TAP	45	288	6
TAP	45	288	7
HLD	46	0	2	96
HLD	46	96	3	96
TAP	46	192	4
TAP	46	288	0
TAP	46	288	1
TAP	47	0	2
TAP	47	0	5
TAP	47	96	1
TAP	47	96	3
TAP	47	192	4
TAP	47	192	6
TAP	47	288	2
TAP	47	288	5
TAP	48	48	6
TAP	48	48	7
TAP	48	96	6
TAP	48	96	7
TAP	48	144	0
TAP	48	144	5
TAP	48	240	0
TAP	48	240	1
TAP	48	288	2
TAP	48	288	7
TAP	49	0	3
HLD	49	0	7	96
TAP	49	96	6
TAP	49	192	0
HLD	49	192	4	96
TAP	49	288	5
TAP	50	0	3
TAP	50	0	6
TAP	50	96	5
TAP	50	96	6
TAP	50	192	1
TAP	50	192	4
TAP	50	288	1
TAP	50	288	2
STR	51	0	6
SCL	51	0	6	96	96	3
STR	51	192	1
SCR	51	192	1	96	96	4
STR	52	0	7
SUR	52	0	7	96	144	0
TAP	53	0	3
HLD	53	0	4	96
HLD	53	96	5	96
TAP	53	192	6
TAP	53	288	0
TAP	53	288	7
HLD	54	0	3	96
TAP	54	0	4
HLD	54	96	2	96
TAP	54	192	1
TAP	54	288	0
TAP	54	288	7
TAP	55	0	2
TAP	55	0	5
TAP	55	48	2
TAP	55	48	5
TAP	55	96	3
TAP	55	96	4
TAP	55	192	3
TAP	55	192	6
TAP	55	288	1
TAP	55	288	4
TAP	56	96	4
TAP	56	96	5
TAP	56	144	3
TAP	56	144	6
TAP	56	240	2
TAP	56	240	3
TAP	56	288	1
TAP	56	288	4
TAP	57	0	0
HLD	57	0	7	96
HLD	57	96	6	96
TAP	57	192	5
TAP	57	288	1
TAP	57	288	3
HLD	58	0	0	96
TAP	58	0	7
HLD	58	96	1	96
TAP	58	192	2
TAP	58	288	4
TAP	58	288	6
STR	59	0	2
SUL	59	0	2	96	96	6
STR	59	192	5
SUR	59	192	5	96	96	1
HLD	60	0	3	96
TAP	60	96	4
BRK	60	192	1
BRK	60	192	6
STR	61	0	3
SI_	61	0	3	96	48	0
STR	61	0	4
SI_	61	0	4	96	48	7
TAP	61	192	3
TAP	61	192	6
TAP	61	288	1
TAP	61	288	4
STR	62	0	2
SCR	62	0	2	96	96	5
TAP	62	0	7
TAP	62	288	1
TAP	62	288	6
HLD	63	0	2	96
TAP	63	0	7
TAP	63	96	3
TAP	63	192	0
HLD	63	192	5	96
TAP	63	288	4
HLD	64	0	2	240
HLD	64	0	7	96
BRK	64	144	0
BRK	64	240	1
HLD	65	0	3	288
TAP	65	0	7
TAP	65	96	0
TAP	65	192	6
TAP	65	288	1
STR	66	0	4
SCL	66	0	4	96	96	1
STR	66	0	5
SCR	66	0	5	96	96	0
TAP	66	288	0
TAP	66	288	7
STR	67	0	6
SCL	67	0	6	96	96	2
TAP	67	96	0
STR	67	192	0
SCR	67	192	0	96	96	4
TAP	67	288	6
TAP	68	0	6
HLD	68	48	6	96
TAP	68	144	7
TAP	68	240	1
TAP	68	240	4
TAP	68	288	1
TAP	68	288	4
TAP	69	0	2
TAP	69	0	7
TAP	69	96	0
TAP	69	96	1
HLD	69	192	6	96
STR	69	288	5
SCL	69	288	5	96	96	2
BRK	70	144	7
TAP	71	0	2
TAP	71	0	3
TAP	71	96	4
TAP	71	96	5
TAP	71	192	0
TAP	71	192	2
TAP	71	288	5
TAP	71	288	7
TAP	72	0	3
TAP	72	0	4
STR	72	48	3
SI_	72	48	3	96	96	7
STR	72	48	4
SI_	72	48	4	96	96	0
TAP	73	0	1
TAP	73	48	1
TAP	73	96	0
TAP	73	96	1
TAP	73	192	6
TAP	73	240	6
TAP	73	288	6
TAP	73	288	7
TAP	74	0	0
TAP	74	0	7
TAP	74	48	0
TAP	74	48	7
TAP	74	144	1
TAP	74	144	6
TAP	74	240	3
TAP	74	240	4
TAP	74	288	3
TAP	74	288	4
TAP	75	0	2
TAP	75	48	2
TAP	75	96	1
TAP	75	96	3
TAP	75	192	5
TAP	75	240	5
TAP	75	288	4
TAP	75	288	6
TAP	76	0	0
TAP	76	0	1
TAP	76	96	6
TAP	76	96	7
TAP	76	192	0
TAP	76	192	1
TAP	76	288	2
STR	76	288	7
SUL	76	288	7	96	288	4
TAP	78	0	0
TAP	78	0	7
TAP	78	96	3
HLD	78	96	4	96
TAP	78	192	6
TAP	78	288	1
TAP	78	288	6
TAP	79	0	3
STR	79	0	4
SUL	79	0	4	96	96	6
TAP	79	288	2
TAP	79	288	5
TAP	80	0	1
TAP	80	0	4
TAP	80	96	3
TAP	80	96	6
TAP	80	192	0
TAP	80	192	5
TAP	80	288	2
TAP	80	288	7
TAP	81	0	6
TAP	81	48	6
TAP	81	96	5
TAP	81	96	7
TAP	81	192	1
TAP	81	240	1
TAP	81	288	0
TAP	81	288	2
TAP	82	0	5
TAP	82	48	5
TAP	82	96	3
TAP	82	144	3
TAP	82	192	4
TAP	82	240	4
TAP	82	288	2
TAP	82	336	2
TAP	83	0	3
TAP	83	48	3
TAP	83	96	2
TAP	83	96	4
TAP	83	192	7
TAP	83	240	7
TAP	83	288	0
TAP	83	288	6
TAP	84	0	6
HLD	84	0	7	96
HLD	84	96	0	96
HLD	84	192	1	96
STR	84	288	2
SI_	84	288	2	96	96	6
TAP	85	192	3
TAP	85	192	4
BRK	85	288	0
BRK	85	288	7
STR	86	0	3
SI_	86	0	3	96	48	0
STR	86	0	4
SI_	86	0	4	96	48	7
TAP	86	192	1
TAP	86	192	3
TAP	86	288	4
TAP	86	288	6
TAP	87	0	2
TAP	87	0	3
TAP	87	48	2
TAP	87	48	3
TAP	87	144	0
TAP	87	144	5
TAP	87	240	5
TAP	87	288	4
TAP	87	336	3
TAP	88	48	2
TAP	88	96	3
TAP	88	144	4
TAP	88	240	4
TAP	88	240	5
TAP	88	288	4
TAP	88	288	5
HLD	89	0	2	240
HLD	89	0	7	96
BRK	89	144	0
BRK	89	240	1
TAP	90	0	6
TAP	90	0	7
TAP	90	96	0
TAP	90	96	7
TAP	90	192	5
TAP	90	192	7
TAP	90	288	1
TAP	90	288	7
TAP	91	0	4
TAP	91	0	5
TAP	91	48	4
STR	91	48	5
SI_	91	48	5	96	48	0
TAP	91	240	2
TAP	91	288	2
HLD	91	336	2	144
TAP	92	48	5
TAP	92	96	5
TAP	92	192	0
TAP	92	192	1
TAP	92	288	6
TAP	92	288	7
STR	93	0	4
SUL	93	0	4	96	192	3
TAP	93	0	5
TAP	94	0	2
TAP	94	0	7
TAP	94	96	0
TAP	94	96	1
HLD	94	192	6	96
STR	94	288	5
SXR	94	288	5	96	144	2
BRK	95	144	7
TAP	95	240	2
TAP	95	288	3
TAP	95	336	2
TAP	96	48	5
TAP	96	96	4
TAP	96	144	5
TAP	96	240	0
TAP	96	240	7
TAP	96	288	0
TAP	96	288	7
TAP	97	0	6
TAP	97	48	6
TAP	97	96	1
TAP	97	144	1
STR	97	192	7
SI_	97	192	7	96	48	4
TAP	98	0	3
TAP	98	48	2
TAP	98	96	1
TAP	98	192	4
TAP	98	240	5
TAP	98	288	6
TAP	99	0	2
TAP	99	48	3
TAP	99	96	4
HLD	99	144	5	96
TAP	99	240	4
TAP	99	288	3
TAP	99	336	2
TAP	100	48	0
TAP	100	48	7
TAP	100	96	0
TAP	100	96	7
TAP	100	192	3
TAP	100	192	4
TAP	100	288	5
TAP	100	288	6
TAP	100	336	5
TAP	100	336	6
TAP	101	48	1
TAP	101	48	2
TAP	101	96	1
TAP	101	96	2
TAP	101	192	1
TAP	101	192	4
TAP	101	288	3
TAP	101	288	6
BST	102	0	0
SCR	102	0	0	96	672	7
BST	102	0	7
SCL	102	0	7	96	672	0

T_REC_TAP	432
T_REC_BRK	14
T_REC_XTP	0
T_REC_HLD	65
T_REC_XHO	0
T_REC_STR	36
T_REC_BST	3
T_REC_XST	0
T_REC_TTP	0
T_REC_THO	0
T_REC_SLD	39
T_REC_ALL	589
T_NUM_TAP	468
T_NUM_BRK	17
T_NUM_HLD	65
T_NUM_SLD	39
T_NUM_ALL	589
T_JUDGE_TAP	485
T_JUDGE_HLD	168
T_JUDGE_SLD	39
T_JUDGE_ALL	692
TTM_EACHPAIRS	183
TTM_SCR_TAP	234000
TTM_SCR_BRK	44200
TTM_SCR_HLD	65000
TTM_SCR_SLD	58500
TTM_SCR_ALL	401700
TTM_SCR_S	388000
TTM_SCR_SS	400000
TTM_RAT_ACV	10042

