VERSION	0.00.00	1.03.00
FES_MODE	0
BPM_DEF	175.000	175.000	175.000	175.000
MET_DEF	4	4
RESOLUTION	384
CLK_DEF	384
COMPATIBLE_CODE	MA2

BPM	0	0	175.000

TAP	4	0	2
TAP	4	96	2
TAP	4	192	1
TAP	4	192	3
TAP	5	0	5
TAP	5	96	5
TAP	5	192	4
TAP	5	192	6
HLD	6	0	3	96
HLD	6	192	2	96
TAP	7	0	1
TAP	7	96	1
TAP	7	192	0
TAP	7	192	2
TAP	8	0	5
TAP	8	96	5
TAP	8	192	4
TAP	8	192	6
TAP	9	0	2
TAP	9	96	2
TAP	9	192	1
TAP	9	192	3
HLD	10	0	4	96
HLD	10	192	5	96
TAP	11	0	6
TAP	11	96	6
TAP	11	192	5
TAP	11	192	7
TAP	12	0	0
TAP	12	0	1
TAP	12	96	0
TAP	12	96	1
TAP	12	192	2
TAP	12	288	3
TAP	13	0	4
TAP	13	96	5
TAP	13	192	6
TAP	13	192	7
TAP	14	0	7
STR	14	96	7
SI_	14	96	7	96	144	3
TAP	15	0	2
TAP	15	96	2
TAP	15	192	0
TAP	15	192	1
TAP	15	288	0
TAP	15	288	1
TAP	16	0	7
TAP	16	96	7
TAP	16	192	6
TAP	16	288	6
TAP	17	0	7
TAP	17	96	6
TAP	17	192	0
TAP	17	192	5
HLD	18	0	0	96
HLD	18	0	1	96
HLD	18	192	6	96
HLD	18	192	7	96
STR	19	0	0
SCR	19	0	0	96	192	3
STR	19	0	4
SCR	19	0	4	96	192	7
TAP	20	0	6
TAP	20	0	7
TAP	20	96	6
TAP	20	96	7
TAP	20	192	5
TAP	20	288	4
TAP	21	0	3
TAP	21	96	2
TAP	21	192	0
TAP	21	192	1
TAP	22	0	0
STR	22	96	0
SI_	22	96	0	96	144	4
TAP	23	0	5
TAP	23	96	5
TAP	23	192	6
TAP	23	192	7
TAP	23	288	6
TAP	23	288	7
TAP	24	0	0
TAP	24	96	0
TAP	24	192	1
TAP	24	288	1
TAP	25	0	0
TAP	25	96	1
TAP	25	192	2
TAP	25	192	7
HLD	26	0	6	96
HLD	26	0	7	96
HLD	26	192	0	96
HLD	26	192	1	96
STR	27	0	3
SCL	27	0	3	96	192	0
STR	27	0	7
SCL	27	0	7	96	192	4
HLD	28	0	3	288
HLD	28	0	4	288
TAP	29	0	1
TAP	29	96	1
TAP	29	192	2
TAP	29	288	2
TAP	30	0	3
TAP	30	96	3
TAP	30	192	2
TAP	30	192	4
TAP	31	0	6
TAP	31	96	6
TAP	31	192	5
TAP	31	288	5
TAP	32	0	4
TAP	32	96	4
TAP	32	192	3
TAP	32	192	5
TAP	33	0	2
TAP	33	96	2
TAP	33	192	1
TAP	33	288	1
TAP	34	0	0
TAP	34	96	0
TAP	34	192	1
TAP	34	192	7
TAP	35	0	5
TAP	35	96	5
TAP	35	192	6
TAP	35	288	6
TAP	36	0	7
TAP	36	96	7
TAP	36	192	0
TAP	36	192	6
TAP	37	0	2
TAP	37	96	3
TAP	37	192	1
TAP	37	192	4
TAP	38	0	5
TAP	38	96	4
TAP	38	192	3
TAP	38	192	6
TAP	39	0	2
TAP	39	96	2
TAP	39	192	1
TAP	39	288	1
TAP	40	0	0
TAP	40	96	7
TAP	40	192	1
TAP	40	192	6
TAP	41	0	4
TAP	41	96	4
TAP	41	192	5
TAP	41	288	5
TAP	42	0	6
TAP	42	96	7
TAP	42	192	0
TAP	42	192	5
TAP	43	0	3
TAP	43	96	3
TAP	43	192	2
TAP	43	288	2
TAP	44	0	1
TAP	44	96	0
TAP	44	192	2
TAP	44	192	7
HLD	45	0	5	192
HLD	45	192	4	192
HLD	46	0	3	192
TAP	46	192	2
TAP	47	0	0
TAP	47	96	0
TAP	47	192	7
TAP	47	288	7
TAP	48	0	0
TAP	48	96	1
TAP	48	192	2
TAP	48	192	7
TAP	49	0	5
TAP	49	96	5
TAP	49	192	4
TAP	49	192	6
TAP	50	0	2
TAP	50	96	2
TAP	50	192	1
TAP	50	192	3
STR	51	0	6
SI_	51	0	6	96	96	4
STR	51	192	0
SI_	51	192	0	96	96	2
STR	52	0	7
SI_	52	0	7	96	144	3
TAP	52	192	0
HLD	53	0	2	192
HLD	53	192	3	192
HLD	54	0	4	192
TAP	54	192	5
TAP	55	0	7
TAP	55	96	7
TAP	55	192	0
TAP	55	288	0
TAP	56	0	7
TAP	56	96	6
TAP	56	192	0
TAP	56	192	5
TAP	57	0	2
TAP	57	96	2
TAP	57	192	1
TAP	57	192	3
TAP	58	0	5
TAP	58	96	5
TAP	58	192	4
TAP	58	192	6
STR	59	0	1
SI_	59	0	1	96	96	3
STR	59	192	7
SI_	59	192	7	96	96	5
STR	60	0	0
SI_	60	0	0	96	144	4
TAP	60	192	7
BRK	61	0	0
BRK	61	0	7
BRK	61	96	0
BRK	61	96	7
TAP	61	192	1
TAP	61	288	2
TAP	62	0	3
TAP	62	96	2
TAP	62	192	1
TAP	62	192	4
HLD	63	0	4	96
HLD	63	0	5	96
HLD	63	192	2	96
HLD	63	192	3	96
HLD	64	0	4	96
HLD	64	0	5	96
TAP	64	192	6
TAP	64	192	7
TAP	64	288	6
TAP	64	288	7
TAP	65	0	0
TAP	65	96	0
TAP	65	192	1
TAP	65	288	1
TAP	66	0	0
TAP	66	96	1
TAP	66	192	2
TAP	66	192	7
TAP	67	0	6
TAP	67	96	5
TAP	67	192	4
TAP	67	288	3
STR	68	0	2
SCL	68	0	2	96	192	7
STR	68	0	6
SCL	68	0	6	96	192	3
TAP	69	0	0
TAP	69	0	7
TAP	69	96	0
TAP	69	96	7
TAP	69	192	6
TAP	69	288	5
TAP	70	0	4
TAP	70	96	5
TAP	70	192	3
TAP	70	192	6
HLD	71	0	2	96
HLD	71	0	3	96
HLD	71	192	4	96
HLD	71	192	5	96
HLD	72	0	2	96
HLD	72	0	3	96
TAP	72	192	0
TAP	72	192	1
TAP	72	288	0
TAP	72	288	1
TAP	73	0	7
TAP	73	96	7
TAP	73	192	6
TAP	73	288	6
TAP	74	0	7
TAP	74	96	6
TAP	74	192	0
TAP	74	192	5
STR	75	0	1
SI_	75	0	1	96	96	4
STR	75	192	6
SI_	75	192	6	96	96	3
TAP	76	0	2
TAP	76	96	3
TAP	76	192	4
TAP	76	288	5
HLD	77	0	3	288
HLD	77	0	4	288
TAP	78	0	3
TAP	78	96	2
TAP	78	192	1
TAP	78	288	0
TAP	79	0	7
STR	79	96	6
SI_	79	96	6	96	96	3
TAP	80	0	4
TAP	80	96	5
TAP	80	192	6
TAP	80	288	7
TAP	81	0	0
STR	81	96	1
SI_	81	96	1	96	96	4
TAP	82	0	3
TAP	82	96	2
TAP	82	192	1
TAP	82	288	0
TAP	83	0	7
STR	83	96	0
SI_	83	96	0	96	96	3
STR	83	96	7
SI_	83	96	7	96	96	4
TAP	84	0	3
TAP	84	0	4
TAP	84	96	2
TAP	84	96	5
TAP	84	192	1
TAP	84	192	6
STR	84	288	0
SUL	84	288	0	96	240	7
TAP	84	288	7
BRK	86	0	0
BRK	86	0	7
BRK	86	96	0
BRK	86	96	7
TAP	86	192	6
TAP	86	288	4
TAP	86	288	5
TAP	87	0	3
TAP	87	96	2
TAP	87	192	1
TAP	87	192	4
HLD	88	0	6	96
HLD	88	0	7	96
HLD	88	192	0	96
HLD	88	192	1	96
HLD	89	0	6	96
HLD	89	0	7	96
TAP	89	192	0
TAP	89	192	1
TAP	89	288	0
TAP	89	288	1
TAP	90	0	2
TAP	90	96	3
TAP	90	192	4
TAP	90	288	5
TAP	91	0	6
TAP	91	96	7
TAP	91	192	0
TAP	91	192	5
TAP	92	0	1
TAP	92	96	2
TAP	92	192	3
TAP	92	288	4
STR	93	0	1
SCR	93	0	1	96	192	4
STR	93	0	5
SCR	93	0	5	96	192	0
TAP	94	0	0
TAP	94	0	7
TAP	94	96	0
TAP	94	96	7
TAP	94	192	1
TAP	94	288	2
TAP	94	288	3
TAP	95	0	4
TAP	95	96	5
TAP	95	192	3
TAP	95	192	6
HLD	96	0	0	96
HLD	96	0	1	96
HLD	96	192	6	96
HLD	96	192	7	96
HLD	97	0	0	96
HLD	97	0	1	96
TAP	97	192	6
TAP	97	192	7
TAP	97	288	6
TAP	97	288	7
TAP	98	0	5
TAP	98	96	4
TAP	98	192	3
TAP	98	288	2
TAP	99	0	1
TAP	99	96	0
TAP	99	192	2
TAP	99	192	7
TAP	100	0	3
TAP	100	0	4
TAP	100	96	2
TAP	100	96	5
TAP	100	192	1
TAP	100	192	6
TAP	100	288	0
TAP	100	288	7
TAP	101	0	1
TAP	101	96	3
TAP	101	192	4
TAP	101	288	6
BST	102	0	3
SXR	102	0	3	96	576	0
BST	102	0	4
SXL	102	0	4	96	576	7

T_REC_TAP	302
T_REC_BRK	8
T_REC_XTP	0
T_REC_HLD	46
T_REC_XHO	0
T_REC_STR	23
T_REC_BST	2
T_REC_XST	0
T_REC_TTP	0
T_REC_THO	0
T_REC_SLD	25
T_REC_ALL	406
T_NUM_TAP	325
T_NUM_BRK	10
T_NUM_HLD	46
T_NUM_SLD	25
T_NUM_ALL	406
T_JUDGE_TAP	335
T_JUDGE_HLD	120
T_JUDGE_SLD	25
T_JUDGE_ALL	480
TTM_EACHPAIRS	91
TTM_SCR_TAP	162500
TTM_SCR_BRK	26000
TTM_SCR_HLD	46000
TTM_SCR_SLD	37500
TTM_SCR_ALL	272000
TTM_SCR_S	262900
TTM_SCR_SS	271000
TTM_RAT_ACV	10036

