VERSION	0.00.00	1.03.00
FES_MODE	0
BPM_DEF	175.000	175.000	175.000	175.000
MET_DEF	4	4
RESOLUTION	384
CLK_DEF	384
COMPATIBLE_CODE	MA2

BPM	0	0	175.000

TAP	4	0	0
TAP	4	192	0
TAP	5	0	1
TAP	5	192	1
TAP	6	0	2
TAP	6	192	2
TAP	7	0	3
TAP	7	192	3
TAP	8	0	4
TAP	8	192	4
TAP	9	0	5
TAP	9	192	5
TAP	10	0	6
TAP	10	192	6
TAP	11	0	7
BRK	11	192	7
TAP	12	0	0
TAP	12	96	0
TAP	12	192	0
TAP	13	0	1
TAP	13	96	1
TAP	13	192	1
TAP	14	0	2
TAP	14	0	3
TAP	14	192	4
TAP	14	192	5
TAP	15	0	2
TAP	15	96	3
TAP	15	192	2
TAP	16	0	4
TAP	16	96	4
TAP	16	192	4
TAP	17	0	5
TAP	17	96	5
TAP	17	192	5
TAP	18	0	6
TAP	18	96	6
TAP	18	192	6
HLD	19	0	0	192
HLD	19	0	7	192
TAP	20	0	7
TAP	20	96	7
TAP	20	192	7
TAP	21	0	6
TAP	21	96	6
TAP	21	192	6
TAP	22	0	4
TAP	22	0	5
TAP	22	192	2
TAP	22	192	3
TAP	23	0	5
TAP	23	96	4
TAP	23	192	5
TAP	24	0	3
TAP	24	96	3
TAP	24	192	3
TAP	25	0	2
TAP	25	96	2
TAP	25	192	2
TAP	26	0	1
TAP	26	96	1
TAP	26	192	1
HLD	27	0	0	192
HLD	27	0	7	192
TAP	28	0	1
TAP	28	0	6
TAP	29	0	7
TAP	29	192	7
TAP	30	0	6
TAP	30	0	7
TAP	30	192	6
TAP	30	192	7
TAP	31	0	5
TAP	31	192	5
TAP	32	0	4
TAP	32	0	5
TAP	32	192	4
TAP	32	192	5
TAP	33	0	3
TAP	33	192	3
TAP	34	0	2
TAP	34	0	3
TAP	34	192	2
TAP	34	192	3
TAP	35	0	1
TAP	35	192	1
TAP	36	0	0
TAP	36	0	1
BRK	36	192	0
BRK	36	192	1
TAP	37	0	0
TAP	37	96	0
TAP	37	192	0
TAP	38	0	1
TAP	38	96	1
TAP	38	192	0
TAP	38	192	1
TAP	39	0	2
TAP	39	96	2
TAP	39	192	2
TAP	40	0	3
TAP	40	96	3
TAP	40	192	3
TAP	40	192	4
TAP	41	0	4
TAP	41	96	4
TAP	41	192	4
HLD	42	0	5	192
TAP	43	0	6
TAP	43	96	6
TAP	43	192	6
TAP	44	0	7
TAP	44	96	7
TAP	44	192	0
TAP	44	192	7
TAP	45	0	0
TAP	45	96	0
TAP	45	192	7
TAP	46	0	7
TAP	46	96	7
TAP	46	192	0
STR	47	0	0
SI_	47	0	0	96	288	4
TAP	49	0	7
TAP	49	96	7
TAP	49	192	0
TAP	50	0	0
TAP	50	96	0
TAP	50	192	7
STR	51	0	7
SI_	51	0	7	96	288	3
TAP	53	0	1
TAP	53	96	0
TAP	53	192	1
TAP	54	0	6
TAP	54	96	7
TAP	54	192	6
STR	55	0	0
SI_	55	0	0	96	288	4
TAP	57	0	6
TAP	57	96	7
TAP	57	192	6
TAP	58	0	1
TAP	58	96	0
TAP	58	192	1
STR	59	0	7
SI_	59	0	7	96	288	3
TAP	61	0	0
TAP	61	96	0
TAP	61	192	0
TAP	62	0	1
TAP	62	96	1
TAP	62	192	1
TAP	63	0	2
TAP	63	0	3
TAP	63	192	4
TAP	63	192	5
TAP	64	0	2
TAP	64	96	3
TAP	64	192	2
TAP	65	0	4
TAP	65	96	4
TAP	65	192	4
TAP	66	0	5
TAP	66	96	5
TAP	66	192	5
TAP	67	0	6
TAP	67	96	6
TAP	67	192	6
HLD	68	0	0	192
HLD	68	0	7	192
TAP	69	0	7
TAP	69	96	7
TAP	69	192	7
TAP	70	0	6
TAP	70	96	6
TAP	70	192	6
TAP	71	0	4
TAP	71	0	5
TAP	71	192	2
TAP	71	192	3
TAP	72	0	5
TAP	72	96	4
TAP	72	192	5
TAP	73	0	3
TAP	73	96	3
TAP	73	192	3
TAP	74	0	2
TAP	74	96	2
TAP	74	192	2
TAP	75	0	1
TAP	75	96	1
TAP	75	192	1
HLD	76	0	0	192
HLD	76	0	7	192
BRK	77	0	1
BRK	77	0	6
TAP	78	0	0
TAP	78	96	0
TAP	78	192	1
TAP	79	0	7
TAP	79	96	7
TAP	79	192	6
TAP	80	0	5
TAP	80	96	5
TAP	80	192	4
TAP	80	288	4
TAP	81	0	3
TAP	81	96	3
TAP	81	192	2
TAP	81	192	3
TAP	82	0	1
TAP	82	96	0
TAP	82	192	1
TAP	83	0	6
TAP	83	96	7
TAP	83	192	6
TAP	84	0	0
TAP	84	0	1
TAP	84	192	2
TAP	84	192	3
TAP	85	0	4
TAP	85	0	5
BRK	85	192	6
BRK	85	192	7
TAP	86	0	7
TAP	86	96	7
TAP	86	192	7
TAP	87	0	6
TAP	87	96	6
TAP	87	192	6
TAP	88	0	4
TAP	88	0	5
TAP	88	192	2
TAP	88	192	3
TAP	89	0	4
TAP	89	0	5
TAP	89	96	4
TAP	89	96	5
TAP	89	192	4
TAP	89	192	5
TAP	90	0	3
TAP	90	96	3
TAP	90	192	3
TAP	91	0	2
TAP	91	96	2
TAP	91	192	2
TAP	92	0	1
TAP	92	96	1
TAP	92	192	1
HLD	93	0	0	192
HLD	93	0	7	192
TAP	94	0	0
TAP	94	96	0
TAP	94	192	0
TAP	95	0	1
TAP	95	96	1
TAP	95	192	1
TAP	96	0	2
TAP	96	0	3
TAP	96	192	4
TAP	96	192	5
TAP	97	0	2
TAP	97	0	3
TAP	97	96	2
TAP	97	96	3
TAP	97	192	2
TAP	97	192	3
TAP	98	0	4
TAP	98	96	4
TAP	98	192	4
TAP	99	0	5
TAP	99	96	5
TAP	99	192	5
TAP	100	0	6
TAP	100	96	6
TAP	100	192	6
TAP	101	0	7
TAP	101	96	7
TAP	101	192	0
TAP	101	288	0
HLD	102	0	7	672

T_REC_TAP	255
T_REC_BRK	7
T_REC_XTP	0
T_REC_HLD	12
T_REC_XHO	0
T_REC_STR	4
T_REC_BST	0
T_REC_XST	0
T_REC_TTP	0
T_REC_THO	0
T_REC_SLD	4
T_REC_ALL	282
T_NUM_TAP	259
T_NUM_BRK	7
T_NUM_HLD	12
T_NUM_SLD	4
T_NUM_ALL	282
T_JUDGE_TAP	266
T_JUDGE_HLD	58
T_JUDGE_SLD	4
T_JUDGE_ALL	328
TTM_EACHPAIRS	41
TTM_SCR_TAP	129500
TTM_SCR_BRK	18200
TTM_SCR_HLD	12000
TTM_SCR_SLD	6000
TTM_SCR_ALL	165700
TTM_SCR_S	160050
TTM_SCR_SS	165000
TTM_RAT_ACV	10042

