VERSION	0.00.00	1.03.00
FES_MODE	0
BPM_DEF	102.000	102.000	102.000	102.000
MET_DEF	4	4
RESOLUTION	384
CLK_DEF	384
COMPATIBLE_CODE	MA2

BPM	0	0	102.000
MET	0	0	4	4

TAP	2	0	1
TAP	2	0	4
TAP	2	48	2
TAP	2	96	3
TAP	2	96	6
TAP	2	144	5
TAP	2	176	4
TAP	2	224	4
TAP	2	240	5
TAP	2	288	3
TAP	2	288	6
TAP	2	336	5
HLD	3	0	2	48
TAP	3	48	3
TAP	3	80	1
TAP	3	80	4
TAP	3	128	1
TAP	3	128	4
TAP	3	176	5
TAP	3	224	5
TAP	3	240	4
TAP	3	288	1
TAP	3	288	4
TAP	3	336	2
TAP	3	336	3
TAP	4	0	3
TAP	4	0	6
TAP	4	48	5
TAP	4	96	1
TAP	4	96	4
TAP	4	144	2
TAP	4	176	3
TAP	4	224	3
TAP	4	240	2
TAP	4	288	1
TAP	4	288	4
TAP	4	336	2
HLD	5	0	5	48
TAP	5	48	4
TAP	5	80	3
TAP	5	80	6
TAP	5	128	3
TAP	5	128	6
TAP	5	176	2
TAP	5	224	2
TAP	5	240	3
TAP	5	288	3
TAP	5	288	6
TAP	6	0	0
TAP	6	0	4
TAP	6	96	2
TAP	6	96	6
TAP	6	176	5
TAP	6	224	5
TAP	6	240	4
TAP	6	288	1
TAP	6	336	0
TAP	6	336	2
TAP	7	0	3
TAP	7	0	7
TAP	7	96	1
TAP	7	96	5
TAP	7	176	2
TAP	7	224	2
TAP	7	240	3
TAP	7	288	6
TAP	7	336	5
TAP	7	336	7
TAP	8	0	0
TAP	8	0	4
TAP	8	96	2
TAP	8	96	6
TAP	8	176	5
TAP	8	224	5
TAP	8	240	4
TAP	8	288	1
TAP	8	336	0
TAP	8	336	2
TAP	9	0	3
TAP	9	0	7
TAP	9	48	6
TAP	9	96	0
TAP	9	96	4
TAP	9	144	1
TAP	9	192	5
TAP	9	224	5
TAP	9	240	4
TAP	9	288	2
TAP	9	320	2
TAP	9	336	3
TAP	10	0	3
TAP	10	0	7
TAP	10	96	1
TAP	10	96	5
TAP	10	176	6
TAP	10	224	6
TAP	10	240	7
TAP	10	288	2
TAP	10	336	1
TAP	10	336	3
TAP	11	0	0
TAP	11	0	4
TAP	11	96	2
TAP	11	96	6
TAP	11	176	1
TAP	11	224	1
TAP	11	240	0
TAP	11	288	5
TAP	11	336	4
TAP	11	336	6
TAP	12	0	3
TAP	12	0	7
TAP	12	96	1
TAP	12	96	5
TAP	12	176	6
TAP	12	224	6
TAP	12	240	7
TAP	12	288	2
TAP	12	336	1
TAP	12	336	3
TAP	13	0	0
TAP	13	0	7
STR	13	48	1
SUR	13	48	1	96	96	6
STR	13	48	6
SV_	13	48	6	96	96	1
TAP	13	80	1
TAP	13	80	6
TAP	13	320	2
STR	13	336	3
SCR	13	336	3	96	48	6
TAP	13	368	3
TAP	14	0	2
TAP	14	48	0
TAP	14	80	0
TAP	14	128	5
STR	14	144	4
SCL	14	144	4	96	48	1
TAP	14	176	4
TAP	14	192	5
TAP	14	240	7
TAP	14	272	7
TAP	14	320	2
STR	14	336	3
SCR	14	336	3	96	48	6
TAP	14	368	3
TAP	15	0	2
TAP	15	48	0
TAP	15	80	0
TAP	15	128	5
STR	15	144	4
SCL	15	144	4	96	48	1
TAP	15	176	4
TAP	15	192	5
TAP	15	240	7
TAP	15	272	7
TAP	15	320	2
TAP	15	336	3
TAP	15	368	3
TAP	16	0	2
TAP	16	48	5
TAP	16	80	5
TAP	16	128	0
HLD	16	176	1	64
TAP	16	240	0
TAP	16	288	7
TAP	16	336	6
TAP	17	0	1
TAP	17	0	4
TAP	17	48	0
TAP	17	80	7
TAP	17	96	3
TAP	17	96	6
TAP	17	144	7
TAP	17	176	0
TAP	17	192	1
TAP	17	192	4
TAP	17	240	0
TAP	17	272	7
TAP	17	288	3
TAP	17	288	6
TAP	17	320	6
STR	17	336	7
SCR	17	336	7	96	48	2
TAP	17	368	7
TAP	18	0	6
TAP	18	48	4
TAP	18	80	4
TAP	18	128	1
STR	18	144	0
SCL	18	144	0	96	48	5
TAP	18	176	0
TAP	18	192	1
TAP	18	240	3
TAP	18	272	3
TAP	18	320	6
STR	18	336	7
SCR	18	336	7	96	48	2
TAP	18	368	7
TAP	19	0	6
TAP	19	48	4
TAP	19	80	4
TAP	19	128	1
STR	19	144	0
SCL	19	144	0	96	48	5
TAP	19	176	0
TAP	19	192	1
TAP	19	240	3
TAP	19	272	3
TAP	19	320	6
TAP	19	336	7
TAP	19	368	7
TAP	20	0	6
TAP	20	48	4
TAP	20	80	3
TAP	20	80	5
TAP	20	128	1
TAP	20	144	0
TAP	20	176	0
TAP	20	192	1
TAP	20	240	3
TAP	20	272	2
TAP	20	272	4
TAP	20	320	6
TAP	20	336	7
TAP	20	368	7
TAP	21	0	6
TAP	21	48	3
TAP	21	48	4
TAP	21	96	3
TAP	21	96	4
TAP	21	128	0
TAP	21	128	7
TAP	21	176	2
TAP	21	176	5
TAP	21	224	4
TAP	21	240	3
BRK	21	288	1
BRK	21	288	6
STR	22	0	6
SCL	22	0	6	96	48	3
TAP	22	0	7
TAP	22	48	2
STR	22	48	3
SUL	22	48	3	96	32	6
TAP	22	192	0
STR	22	192	1
SCR	22	192	1	96	48	4
STR	22	240	4
SUR	22	240	4	96	32	1
TAP	22	240	5
STR	23	0	6
SCL	23	0	6	96	48	3
TAP	23	0	7
TAP	23	48	2
STR	23	48	3
SUL	23	48	3	96	32	6
TAP	23	192	0
TAP	23	192	1
TAP	23	240	2
TAP	23	240	7
TAP	23	288	3
TAP	23	288	6
TAP	23	336	4
TAP	23	336	5
STR	24	0	0
SCL	24	0	0	96	48	5
TAP	24	0	1
TAP	24	48	4
STR	24	48	5
SUL	24	48	5	96	32	0
TAP	24	192	6
STR	24	192	7
SCR	24	192	7	96	48	2
STR	24	240	2
SUR	24	240	2	96	32	7
TAP	24	240	3
STR	25	0	0
SCL	25	0	0	96	48	5
TAP	25	0	1
TAP	25	48	4
STR	25	48	5
SUL	25	48	5	96	32	0
TAP	25	192	6
TAP	25	192	7
TAP	25	224	2
TAP	25	240	3
TAP	25	288	1
TAP	25	288	4
TAP	26	0	4
STR	26	0	6
SCR	26	0	6	96	48	1
TAP	26	48	3
TAP	26	96	2
TAP	26	128	2
STR	26	176	1
SCL	26	176	1	96	48	6
TAP	26	176	3
TAP	26	224	4
TAP	26	240	4
TAP	26	288	5
HLD	26	320	5	48
TAP	26	368	7
TAP	27	48	2
TAP	27	48	3
TAP	27	96	4
TAP	27	128	4
TAP	27	176	3
TAP	27	176	6
TAP	27	240	0
TAP	27	240	1
TAP	27	288	2
TAP	27	288	7
TAP	27	336	3
TAP	27	336	6
TAP	28	0	4
TAP	28	0	5
TAP	28	48	3
TAP	28	48	6
TAP	28	96	1
TAP	28	96	4
HLD	28	128	2	48
TAP	28	176	3
TAP	28	240	5
TAP	28	288	4
TAP	28	288	6
TAP	28	336	2
TAP	29	0	1
TAP	29	0	3
TAP	29	48	6
TAP	29	96	0
TAP	29	96	7
TAP	29	128	0
TAP	29	128	7
TAP	29	176	2
TAP	29	176	5
TAP	29	224	3
TAP	29	240	4
BRK	29	288	1
BRK	29	288	6
TAP	30	0	0
TAP	30	0	5
TAP	30	48	6
TAP	30	96	2
TAP	30	96	7
TAP	30	144	1
TAP	30	176	0
TAP	30	224	0
TAP	30	240	1
TAP	30	288	2
TAP	30	288	7
TAP	30	336	1
HLD	31	0	6	48
TAP	31	48	7
TAP	31	80	0
TAP	31	80	5
TAP	31	128	0
TAP	31	128	5
TAP	31	176	1
TAP	31	224	1
TAP	31	240	0
TAP	31	288	0
TAP	31	288	5
TAP	31	336	6
TAP	31	336	7
TAP	32	0	2
TAP	32	0	7
TAP	32	48	1
TAP	32	96	0
TAP	32	96	5
TAP	32	144	6
TAP	32	176	7
TAP	32	224	7
TAP	32	240	6
TAP	32	288	0
TAP	32	288	5
TAP	32	336	6
HLD	33	0	1	48
TAP	33	48	0
TAP	33	80	2
TAP	33	80	7
TAP	33	128	2
TAP	33	128	7
TAP	33	176	6
TAP	33	224	6
TAP	33	240	7
BRK	33	288	2
BRK	33	288	7
STR	34	0	0
SUR	34	0	0	96	48	5
STR	34	0	1
SCR	34	0	1	96	48	4
STR	34	48	4
SUR	34	48	4	96	24	1
STR	34	48	5
SCR	34	48	5	96	24	0
STR	34	192	6
SCL	34	192	6	96	48	3
STR	34	192	7
SUL	34	192	7	96	48	2
STR	34	240	2
SCL	34	240	2	96	24	7
STR	34	240	3
SUL	34	240	3	96	24	6
STR	35	0	0
SUR	35	0	0	96	48	5
STR	35	0	1
SCR	35	0	1	96	48	4
STR	35	48	4
SUR	35	48	4	96	24	1
STR	35	48	5
SCR	35	48	5	96	24	0
TAP	35	192	6
TAP	35	192	7
TAP	35	240	0
TAP	35	240	5
TAP	35	288	1
TAP	35	288	4
TAP	35	336	2
TAP	35	336	3
STR	36	0	6
SCL	36	0	6	96	48	3
STR	36	0	7
SUL	36	0	7	96	48	2
STR	36	48	2
SCL	36	48	2	96	24	7
STR	36	48	3
SUL	36	48	3	96	24	6
STR	36	192	0
SUR	36	192	0	96	48	5
STR	36	192	1
SCR	36	192	1	96	48	4
STR	36	240	4
SUR	36	240	4	96	24	1
STR	36	240	5
SCR	36	240	5	96	24	0
STR	37	0	6
SCL	37	0	6	96	48	3
STR	37	0	7
SUL	37	0	7	96	48	2
STR	37	48	2
SCL	37	48	2	96	24	7
STR	37	48	3
SUL	37	48	3	96	24	6
TAP	37	192	0
TAP	37	192	1
TAP	37	224	5
TAP	37	240	4
TAP	37	288	3
TAP	37	288	6
STR	38	0	1
SCL	38	0	1	96	48	6
TAP	38	0	3
TAP	38	48	4
TAP	38	96	5
TAP	38	128	5
TAP	38	176	4
STR	38	176	6
SCR	38	176	6	96	48	1
TAP	38	224	3
TAP	38	240	3
TAP	38	288	2
HLD	38	320	2	48
TAP	38	368	0
TAP	39	48	4
TAP	39	48	5
TAP	39	96	3
TAP	39	128	3
TAP	39	176	1
TAP	39	176	4
TAP	39	240	6
TAP	39	240	7
TAP	39	288	0
TAP	39	288	5
TAP	39	336	1
TAP	39	336	4
STR	40	0	2
SCL	40	0	2	96	24	7
TAP	40	48	3
STR	40	96	6
SUL	40	96	6	96	24	2
TAP	40	144	4
STR	40	192	1
SUR	40	192	1	96	24	5
TAP	40	240	0
TAP	40	288	6
TAP	40	336	7
BST	41	0	1
SUL	41	0	1	96	144	6
BST	41	0	6
SLL	41	0	6	96	144	1
BRK	41	48	1
BRK	41	48	6
TAP	41	288	0
TAP	41	288	7
TAP	42	0	1
TAP	42	0	4
TAP	42	48	2
TAP	42	96	4
TAP	42	96	6
TAP	42	144	5
TAP	42	176	4
TAP	42	224	4
TAP	42	240	5
TAP	42	288	3
TAP	42	288	6
TAP	42	336	5
HLD	43	0	2	48
TAP	43	48	3
TAP	43	80	1
TAP	43	80	4
TAP	43	128	1
TAP	43	128	4
TAP	43	176	5
TAP	43	224	5
TAP	43	240	4
TAP	43	288	1
TAP	43	288	4
TAP	43	336	2
TAP	43	336	3
TAP	44	0	3
TAP	44	0	6
TAP	44	48	5
TAP	44	96	1
TAP	44	96	3
TAP	44	144	2
TAP	44	176	3
TAP	44	224	3
TAP	44	240	2
TAP	44	288	1
TAP	44	288	4
TAP	44	336	2
HLD	45	0	5	48
TAP	45	48	4
TAP	45	80	3
TAP	45	80	6
TAP	45	128	3
TAP	45	128	6
TAP	45	176	2
TAP	45	224	2
TAP	45	240	3
TAP	45	288	3
TAP	45	288	6
STR	46	0	2
SCL	46	0	2	96	96	6
TAP	46	96	3
STR	46	192	4
SCL	46	192	4	96	96	0
TAP	46	288	5
STR	47	0	6
SCL	47	0	6	96	96	2
TAP	47	96	7
STR	47	192	0
SCL	47	192	0	96	96	4
TAP	47	288	1
STR	48	0	2
SCR	48	0	2	96	96	6
TAP	48	96	1
STR	48	192	0
SCR	48	192	0	96	96	4
TAP	48	288	7
STR	49	0	6
SCR	49	0	6	96	96	2
TAP	49	96	5
TAP	49	192	4
TAP	49	288	3
TAP	49	288	4

T_REC_TAP	425
T_REC_BRK	8
T_REC_XTP	0
T_REC_HLD	10
T_REC_XHO	0
T_REC_STR	60
T_REC_BST	2
T_REC_XST	0
T_REC_TTP	0
T_REC_THO	0
T_REC_SLD	62
T_REC_ALL	567
T_NUM_TAP	485
T_NUM_BRK	10
T_NUM_HLD	10
T_NUM_SLD	62
T_NUM_ALL	567
T_JUDGE_TAP	495
T_JUDGE_HLD	21
T_JUDGE_SLD	62
T_JUDGE_ALL	578
TTM_EACHPAIRS	136
TTM_SCR_TAP	242500
TTM_SCR_BRK	26000
TTM_SCR_HLD	10000
TTM_SCR_SLD	93000
TTM_SCR_ALL	371500
TTM_SCR_S	359400
TTM_SCR_SS	370500
TTM_RAT_ACV	10026

