VERSION	0.00.00	1.03.00
FES_MODE	0
BPM_DEF	102.000	102.000	102.000	102.000
MET_DEF	4	4
RESOLUTION	384
CLK_DEF	384
COMPATIBLE_CODE	MA2

BPM	0	0	102.000
MET	0	0	4	4

TAP	2	0	1
TAP	2	0	6
TAP	2	96	2
TAP	2	96	3
TAP	2	173	4
TAP	2	173	5
TAP	2	221	2
TAP	2	240	3
TAP	2	288	4
TAP	2	288	6
TAP	2	336	3
TAP	2	336	5
TAP	3	0	2
TAP	3	0	4
TAP	3	48	1
TAP	3	77	0
TAP	3	125	7
HLD	3	173	6	163
TAP	3	240	5
TAP	3	288	4
TAP	3	336	2
TAP	4	0	3
TAP	4	0	4
TAP	4	96	1
TAP	4	96	6
TAP	4	173	0
TAP	4	173	7
TAP	4	221	1
TAP	4	240	6
TAP	4	288	0
TAP	4	288	7
TAP	4	336	1
TAP	4	336	6
TAP	5	0	2
TAP	5	0	5
TAP	5	48	0
TAP	5	77	7
TAP	5	125	4
TAP	5	125	5
TAP	5	173	2
TAP	5	173	3
TAP	5	221	0
TAP	5	240	0
TAP	5	288	5
TAP	5	317	4
TAP	5	336	5
HLD	6	0	0	96
TAP	6	96	1
TAP	6	173	6
TAP	6	221	6
TAP	6	240	7
TAP	6	288	1
TAP	6	288	6
TAP	6	336	7
TAP	6	365	0
HLD	7	0	7	96
TAP	7	96	6
TAP	7	173	1
TAP	7	221	1
TAP	7	240	0
TAP	7	288	3
TAP	7	317	4
TAP	7	336	3
TAP	8	0	1
TAP	8	0	6
TAP	8	96	0
TAP	8	96	4
TAP	8	173	5
TAP	8	221	1
TAP	8	240	5
TAP	8	288	2
TAP	8	288	6
TAP	8	336	1
TAP	8	336	5
TAP	9	0	0
TAP	9	0	4
TAP	9	48	7
HLD	9	77	0	96
TAP	9	125	1
TAP	9	173	2
TAP	9	221	5
TAP	9	240	2
TAP	9	288	1
TAP	9	288	6
TAP	9	317	0
TAP	9	336	7
TAP	10	0	0
TAP	10	0	1
TAP	10	96	2
TAP	10	96	7
TAP	10	173	5
TAP	10	192	4
TAP	10	221	5
TAP	10	240	4
TAP	10	288	3
TAP	10	288	6
TAP	10	336	2
TAP	10	365	3
TAP	11	0	1
TAP	11	0	4
TAP	11	96	3
TAP	11	96	6
TAP	11	173	1
TAP	11	192	0
TAP	11	221	1
TAP	11	240	0
TAP	11	288	6
TAP	11	317	7
TAP	11	336	6
TAP	12	0	6
TAP	12	0	7
TAP	12	96	0
TAP	12	96	5
TAP	12	173	2
TAP	12	192	3
TAP	12	221	2
TAP	12	240	3
TAP	12	288	1
TAP	12	288	4
TAP	12	336	2
TAP	12	336	5
TAP	13	0	3
TAP	13	0	6
TAP	13	48	5
TAP	13	77	4
TAP	13	144	2
TAP	13	173	3
TAP	13	221	0
TAP	13	240	7
TAP	13	288	1
TAP	13	288	6
TAP	13	317	7
BRK	13	336	0
HLD	14	0	1	77
HLD	14	77	0	67
HLD	14	144	7	144
STR	14	192	6
SI_	14	192	6	96	24	2
HLD	15	0	3	77
HLD	15	77	4	67
HLD	15	144	5	144
STR	15	192	6
SI_	15	192	6	96	24	2
HLD	16	0	1	192
HLD	16	192	6	96
STR	16	288	1
SI_	16	288	1	96	24	5
STR	17	0	0
SI_	17	0	0	96	24	4
STR	17	96	7
SI_	17	96	7	96	24	3
STR	17	192	6
SI_	17	192	6	96	24	2
HLD	18	0	0	77
HLD	18	77	2	67
TAP	18	144	4
STR	18	192	6
SCL	18	192	6	96	48	0
HLD	19	0	7	77
HLD	19	77	5	67
TAP	19	144	3
STR	19	192	1
SCR	19	192	1	96	48	7
HLD	20	0	1	96
HLD	20	96	0	96
HLD	20	192	7	96
HLD	20	288	6	96
TAP	21	0	2
TAP	21	48	3
TAP	21	96	5
TAP	21	125	4
TAP	21	173	2
TAP	21	173	5
TAP	21	221	0
TAP	21	240	7
BRK	21	288	1
BRK	21	288	6
STR	22	0	6
SUR	22	0	6	96	96	2
STR	22	96	2
SUR	22	96	2	96	96	6
STR	22	192	6
SCR	22	192	6	96	96	1
STR	22	288	1
SUR	22	288	1	96	96	5
STR	23	0	5
SUR	23	0	5	96	96	1
STR	23	96	1
SCR	23	96	1	96	96	4
STR	23	192	4
SCR	23	192	4	96	48	0
STR	24	0	1
SUL	24	0	1	96	96	5
STR	24	96	5
SUL	24	96	5	96	96	1
STR	24	192	1
SCL	24	192	1	96	96	6
STR	24	288	6
SUL	24	288	6	96	96	2
STR	25	0	2
SUL	25	0	2	96	96	6
STR	25	96	6
SCL	25	96	6	96	96	3
STR	25	192	3
SCL	25	192	3	96	48	7
HLD	26	0	5	96
TAP	26	96	1
TAP	26	125	5
TAP	26	173	2
TAP	26	173	6
TAP	26	288	1
TAP	26	317	5
TAP	26	365	0
TAP	26	365	4
TAP	27	48	1
TAP	27	48	5
TAP	27	96	2
TAP	27	96	6
TAP	27	125	2
TAP	27	125	6
BRK	27	173	0
BRK	27	173	4
BRK	27	240	1
BRK	27	240	5
BRK	27	288	2
BRK	27	288	6
BRK	27	336	3
BRK	27	336	7
STR	28	0	4
SUR	28	0	4	96	48	1
STR	28	0	5
SCR	28	0	5	96	48	0
STR	28	192	0
SUR	28	192	0	96	48	5
STR	28	192	1
SCR	28	192	1	96	48	4
TAP	29	0	4
TAP	29	0	5
TAP	29	48	6
TAP	29	48	7
TAP	29	96	0
TAP	29	96	1
TAP	29	144	2
TAP	29	144	3
TAP	29	192	4
TAP	29	192	5
TAP	29	240	6
TAP	29	240	7
TAP	29	288	0
TAP	29	288	1
BRK	29	336	2
BRK	29	336	3
HLD	30	0	6	96
HLD	30	96	4	77
TAP	30	173	2
HLD	30	221	0	67
TAP	30	288	4
TAP	30	336	3
TAP	31	0	2
TAP	31	48	7
HLD	31	77	0	48
HLD	31	125	6	48
HLD	31	173	4	67
TAP	31	240	3
TAP	31	288	5
TAP	31	336	6
TAP	32	0	7
TAP	32	96	1
TAP	32	96	6
TAP	32	173	2
TAP	32	173	7
TAP	32	221	0
TAP	32	221	3
TAP	32	288	2
TAP	32	288	5
TAP	32	336	3
TAP	32	336	6
TAP	33	0	4
TAP	33	0	7
TAP	33	48	6
TAP	33	77	1
TAP	33	125	0
TAP	33	125	7
TAP	33	173	3
TAP	33	173	4
BRK	33	288	0
STR	34	0	1
SCL	34	0	1	96	96	6
STR	34	96	6
SCL	34	96	6	96	96	3
STR	34	192	3
SCL	34	192	3	96	96	0
STR	34	288	0
SUL	34	288	0	96	96	2
STR	35	0	2
SUL	35	0	2	96	96	4
STR	35	96	4
SUL	35	96	4	96	96	6
STR	35	192	6
SUL	35	192	6	96	48	2
STR	36	0	6
SCR	36	0	6	96	96	1
STR	36	96	1
SCR	36	96	1	96	96	4
STR	36	192	4
SCR	36	192	4	96	96	7
STR	36	288	7
SUR	36	288	7	96	96	5
STR	37	0	5
SUR	37	0	5	96	96	3
STR	37	96	3
SUR	37	96	3	96	96	1
STR	37	192	1
SUR	37	192	1	96	48	5
HLD	38	0	0	96
TAP	38	96	6
TAP	38	125	2
TAP	38	173	2
TAP	38	173	4
TAP	38	288	3
TAP	38	317	7
TAP	38	365	2
TAP	38	365	6
TAP	39	48	2
TAP	39	48	6
TAP	39	96	5
TAP	39	125	1
BRK	39	173	1
BRK	39	173	5
BRK	39	240	2
BRK	39	240	6
BRK	39	288	1
BRK	39	288	4
BRK	39	336	3
BRK	39	336	6
TAP	40	0	2
TAP	40	0	3
TAP	40	48	0
TAP	40	48	1
TAP	40	96	6
TAP	40	96	7
TAP	40	144	4
TAP	40	144	5
TAP	40	192	2
TAP	40	192	3
TAP	40	240	0
TAP	40	240	1
TAP	40	288	0
TAP	40	288	7
TAP	40	336	2
TAP	40	336	5
BRK	41	0	0
BRK	41	0	7
BRK	41	48	0
BRK	41	48	7
TAP	41	144	0
TAP	41	192	7
TAP	41	240	2
TAP	41	269	5
TAP	41	317	1
TAP	41	365	6
STR	42	0	0
SI_	42	0	0	96	48	4
TAP	42	173	5
TAP	42	221	4
TAP	42	240	2
TAP	42	288	1
TAP	42	336	6
TAP	43	0	1
TAP	43	48	2
TAP	43	77	4
TAP	43	125	3
TAP	43	125	5
TAP	43	173	4
TAP	43	173	6
TAP	43	221	0
TAP	43	240	7
TAP	43	288	2
TAP	43	336	0
STR	44	0	7
SI_	44	0	7	96	48	3
TAP	44	173	2
TAP	44	221	3
TAP	44	240	4
TAP	44	288	6
TAP	44	336	1
TAP	45	0	6
TAP	45	48	5
TAP	45	77	3
TAP	45	125	2
TAP	45	125	4
TAP	45	173	1
TAP	45	173	3
TAP	45	221	2
TAP	45	240	5
TAP	45	288	0
TAP	45	317	7
TAP	45	336	3
BRK	46	0	0
TAP	46	96	1
TAP	46	173	2
TAP	46	240	5
TAP	46	288	4
TAP	46	336	3
TAP	47	0	1
TAP	47	48	7
TAP	47	77	0
TAP	47	125	6
TAP	47	173	5
TAP	47	240	2
TAP	47	288	3
TAP	47	336	4
TAP	48	0	5
TAP	48	96	6
TAP	48	173	7
TAP	48	240	2
TAP	48	288	1
TAP	48	336	0
TAP	49	0	7
TAP	49	48	0
TAP	49	77	7
TAP	49	125	1
TAP	49	173	2
TAP	49	221	4
TAP	49	240	3
TAP	49	288	1
TAP	49	288	6
TAP	49	336	7
TAP	49	365	0

T_REC_TAP	290
T_REC_BRK	27
T_REC_XTP	0
T_REC_HLD	28
T_REC_XHO	0
T_REC_STR	42
T_REC_BST	0
T_REC_XST	0
T_REC_TTP	0
T_REC_THO	0
T_REC_SLD	42
T_REC_ALL	429
T_NUM_TAP	332
T_NUM_BRK	27
T_NUM_HLD	28
T_NUM_SLD	42
T_NUM_ALL	429
T_JUDGE_TAP	359
T_JUDGE_HLD	113
T_JUDGE_SLD	42
T_JUDGE_ALL	514
TTM_EACHPAIRS	83
TTM_SCR_TAP	166000
TTM_SCR_BRK	70200
TTM_SCR_HLD	28000
TTM_SCR_SLD	63000
TTM_SCR_ALL	327200
TTM_SCR_S	314800
TTM_SCR_SS	324500
TTM_RAT_ACV	10083

