VERSION	0.00.00	1.03.00
FES_MODE	0
BPM_DEF	102.000	102.000	102.000	102.000
MET_DEF	4	4
RESOLUTION	384
CLK_DEF	384
COMPATIBLE_CODE	MA2

BPM	0	0	102.000
MET	0	0	4	4

STR	2	0	0
SI_	2	0	0	96	48	3
STR	2	192	6
SI_	2	192	6	96	48	1
STR	3	0	2
SI_	3	0	2	96	48	5
STR	3	192	7
SI_	3	192	7	96	48	4
STR	4	0	1
SI_	4	0	1	96	48	5
STR	4	192	7
SI_	4	192	7	96	48	3
STR	5	0	0
SI_	5	0	0	96	48	4
STR	5	192	6
SI_	5	192	6	96	48	2
TAP	6	0	2
TAP	6	0	3
TAP	6	96	4
TAP	6	96	5
TAP	6	173	6
TAP	6	221	7
TAP	6	269	0
TAP	7	0	4
TAP	7	0	5
TAP	7	96	2
TAP	7	96	3
TAP	7	173	1
TAP	7	221	0
TAP	7	269	7
TAP	8	0	0
TAP	8	0	1
TAP	8	96	2
TAP	8	96	7
TAP	8	173	3
TAP	8	221	6
TAP	8	269	4
HLD	9	0	5	96
HLD	9	96	4	96
HLD	9	192	3	96
HLD	9	288	2	96
TAP	10	0	0
TAP	10	96	6
TAP	10	96	7
TAP	10	173	5
TAP	10	221	4
TAP	10	269	3
TAP	11	0	6
TAP	11	0	7
TAP	11	96	0
TAP	11	96	1
TAP	11	173	2
TAP	11	221	3
TAP	11	269	4
TAP	12	0	2
TAP	12	0	3
TAP	12	96	1
TAP	12	96	4
TAP	12	173	0
TAP	12	221	5
TAP	12	269	7
HLD	13	0	6	96
HLD	13	96	4	96
HLD	13	192	3	96
HLD	13	288	1	96
TAP	14	0	7
TAP	14	77	2
TAP	14	77	6
STR	14	144	3
SCL	14	144	3	96	48	0
STR	14	144	5
SCR	14	144	5	96	48	0
TAP	15	0	0
TAP	15	0	6
TAP	15	77	1
TAP	15	77	5
STR	15	144	2
SCL	15	144	2	96	48	7
STR	15	144	4
SCR	15	144	4	96	48	7
STR	16	0	6
SI_	16	0	6	96	48	2
STR	16	192	1
SI_	16	192	1	96	48	5
TAP	17	0	6
TAP	17	0	7
TAP	17	96	0
TAP	17	96	1
TAP	17	192	2
TAP	17	192	3
TAP	17	288	4
TAP	17	288	5
TAP	18	0	1
TAP	18	0	7
TAP	18	77	0
TAP	18	77	6
STR	18	144	5
SI_	18	144	5	96	48	2
STR	18	144	7
SI_	18	144	7	96	48	4
TAP	19	0	3
TAP	19	0	5
TAP	19	77	2
TAP	19	77	4
STR	19	144	1
SI_	19	144	1	96	48	6
STR	19	144	3
SI_	19	144	3	96	48	0
HLD	20	0	5	77
TAP	20	48	7
TAP	20	77	7
HLD	20	192	2	77
TAP	20	240	0
TAP	20	269	0
TAP	21	0	1
TAP	21	0	6
TAP	21	48	1
TAP	21	48	6
TAP	21	96	3
TAP	21	125	4
TAP	21	173	2
TAP	21	173	5
BRK	21	240	0
BRK	21	240	7
BRK	21	288	0
BRK	21	288	7
TAP	22	0	1
TAP	22	0	6
TAP	22	96	2
TAP	22	125	3
HLD	22	173	4	115
TAP	22	288	5
TAP	22	317	6
HLD	22	365	7	115
TAP	23	96	0
TAP	23	125	1
TAP	23	173	2
TAP	23	173	3
TAP	23	240	4
TAP	23	288	3
TAP	23	336	4
TAP	24	0	2
TAP	24	0	5
TAP	24	96	1
TAP	24	125	0
HLD	24	173	7	115
TAP	24	288	6
TAP	24	317	5
TAP	24	365	3
TAP	24	365	4
TAP	25	48	2
TAP	25	96	4
TAP	25	125	3
HLD	25	173	5	115
TAP	25	240	1
TAP	25	288	1
TAP	26	0	0
TAP	26	0	7
TAP	26	96	2
TAP	26	125	3
TAP	26	173	1
TAP	26	173	4
TAP	26	288	5
TAP	26	317	4
TAP	26	365	3
TAP	26	365	6
TAP	27	48	2
TAP	27	48	5
TAP	27	96	3
TAP	27	125	4
TAP	27	173	0
TAP	27	173	7
TAP	27	240	1
TAP	27	240	6
TAP	27	288	2
TAP	27	288	5
TAP	27	336	3
TAP	27	336	4
TAP	28	48	5
TAP	28	96	7
TAP	28	125	0
TAP	28	173	2
TAP	28	240	5
TAP	28	288	4
TAP	28	336	3
TAP	29	0	2
TAP	29	48	1
TAP	29	96	0
TAP	29	125	7
STR	29	173	6
SUL	29	173	6	96	96	3
HLD	30	0	1	96
TAP	30	96	0
TAP	30	173	4
TAP	30	173	5
TAP	30	221	4
TAP	30	221	5
TAP	30	288	2
TAP	30	288	3
HLD	31	0	6	96
TAP	31	96	7
TAP	31	173	2
TAP	31	173	3
TAP	31	221	2
TAP	31	221	3
TAP	31	288	4
TAP	31	288	5
HLD	32	0	2	96
TAP	32	96	3
TAP	32	173	6
TAP	32	173	7
TAP	32	221	6
TAP	32	221	7
TAP	32	288	0
TAP	32	288	1
HLD	33	0	5	96
TAP	33	96	4
TAP	33	173	0
TAP	33	173	1
TAP	33	221	0
TAP	33	221	1
TAP	33	288	6
TAP	33	288	7
STR	34	0	0
SCR	34	0	0	96	48	3
STR	34	0	7
SUR	34	0	7	96	48	4
STR	34	192	3
SUR	34	192	3	96	48	0
STR	34	192	4
SCR	34	192	4	96	48	7
STR	35	0	0
SCR	35	0	0	96	48	3
STR	35	0	7
SCL	35	0	7	96	48	4
TAP	35	192	2
TAP	35	240	5
TAP	35	288	1
TAP	35	336	6
STR	36	0	0
SUL	36	0	0	96	48	3
STR	36	0	7
SCL	36	0	7	96	48	4
STR	36	192	3
SCL	36	192	3	96	48	0
STR	36	192	4
SUL	36	192	4	96	48	7
STR	37	0	0
SCR	37	0	0	96	48	3
STR	37	0	7
SCL	37	0	7	96	48	4
TAP	37	192	5
TAP	37	240	2
TAP	37	288	6
TAP	37	336	1
STR	38	0	0
SCR	38	0	0	96	48	3
STR	38	0	4
SUL	38	0	4	96	48	7
STR	38	192	3
SUR	38	192	3	96	48	0
STR	38	192	7
SCL	38	192	7	96	48	4
STR	39	0	0
SCR	39	0	0	96	48	3
STR	39	0	4
SCR	39	0	4	96	48	7
TAP	39	192	2
TAP	39	192	6
TAP	39	240	1
TAP	39	240	5
TAP	39	288	0
TAP	39	288	4
TAP	39	336	3
TAP	39	336	7
STR	40	0	2
SCR	40	0	2	96	48	5
STR	40	0	6
SCR	40	0	6	96	48	1
STR	40	192	1
SCL	40	192	1	96	48	6
STR	40	192	5
SCL	40	192	5	96	48	2
BRK	41	0	0
BRK	41	0	1
BRK	41	48	6
BRK	41	48	7
STR	41	192	0
SI_	41	192	0	96	48	4
STR	41	192	7
SI_	41	192	7	96	48	3
HLD	42	0	2	96
TAP	42	96	3
TAP	42	173	1
TAP	42	173	4
TAP	42	221	2
TAP	42	221	5
TAP	42	288	0
TAP	42	288	7
HLD	43	0	5	96
TAP	43	96	4
TAP	43	173	3
TAP	43	173	6
TAP	43	221	2
TAP	43	221	5
TAP	43	288	0
TAP	43	288	7
HLD	44	0	1	96
TAP	44	96	0
TAP	44	173	2
TAP	44	173	7
TAP	44	221	1
TAP	44	221	6
TAP	44	288	3
TAP	44	288	4
HLD	45	0	6	96
TAP	45	96	7
TAP	45	173	0
TAP	45	173	5
TAP	45	221	1
TAP	45	221	6
TAP	45	288	3
TAP	45	288	4
HLD	46	0	2	192
HLD	46	192	3	192
HLD	47	0	4	192
HLD	47	192	5	192
HLD	48	0	0	192
HLD	48	192	7	192
HLD	49	0	1	96
HLD	49	96	6	96
TAP	49	192	2
TAP	49	240	5
TAP	49	288	3
TAP	49	336	4

T_REC_TAP	211
T_REC_BRK	8
T_REC_XTP	0
T_REC_HLD	30
T_REC_XHO	0
T_REC_STR	43
T_REC_BST	0
T_REC_XST	0
T_REC_TTP	0
T_REC_THO	0
T_REC_SLD	43
T_REC_ALL	335
T_NUM_TAP	254
T_NUM_BRK	8
T_NUM_HLD	30
T_NUM_SLD	43
T_NUM_ALL	335
T_JUDGE_TAP	262
T_JUDGE_HLD	148
T_JUDGE_SLD	43
T_JUDGE_ALL	453
TTM_EACHPAIRS	85
TTM_SCR_TAP	127000
TTM_SCR_BRK	20800
TTM_SCR_HLD	30000
TTM_SCR_SLD	64500
TTM_SCR_ALL	242300
TTM_SCR_S	234300
TTM_SCR_SS	241500
TTM_RAT_ACV	10033

