VERSION	0.00.00	1.03.00
FES_MODE	0
BPM_DEF	102.000	102.000	102.000	102.000
MET_DEF	4	4
RESOLUTION	384
CLK_DEF	384
COMPATIBLE_CODE	MA2

BPM	0	0	102.000
MET	0	0	4	4

TAP	2	0	0
TAP	2	192	7
TAP	3	0	2
TAP	3	96	3
TAP	3	192	4
TAP	3	288	5
TAP	4	0	7
TAP	4	192	0
TAP	5	0	5
TAP	5	96	4
TAP	5	192	3
TAP	5	288	2
TAP	6	0	0
TAP	6	0	1
TAP	6	192	0
TAP	6	192	1
TAP	7	0	0
TAP	7	96	2
TAP	7	192	4
TAP	7	288	6
TAP	8	0	6
TAP	8	0	7
TAP	8	192	6
TAP	8	192	7
TAP	9	0	7
TAP	9	96	5
TAP	9	192	3
TAP	9	288	1
TAP	10	0	0
TAP	10	0	1
TAP	10	192	6
TAP	10	192	7
TAP	11	0	2
TAP	11	96	2
TAP	11	96	3
TAP	11	192	5
TAP	11	288	4
TAP	11	288	5
TAP	12	0	1
TAP	12	0	2
TAP	12	192	5
TAP	12	192	6
TAP	13	0	6
TAP	13	96	7
TAP	13	192	0
BRK	13	288	1
STR	14	0	0
SI_	14	0	0	96	96	3
STR	15	0	4
SI_	15	0	4	96	96	7
STR	16	0	0
SI_	16	0	0	96	72	2
STR	16	192	7
SI_	16	192	7	96	72	3
STR	17	0	0
SI_	17	0	0	96	72	4
STR	17	192	7
SI_	17	192	7	96	72	5
HLD	18	0	0	384
HLD	19	0	7	384
HLD	20	0	1	192
HLD	20	192	0	192
HLD	21	0	7	192
HLD	21	192	6	96
BRK	21	288	0
TAP	22	0	1
TAP	22	96	0
TAP	22	192	7
TAP	22	288	6
TAP	23	0	5
TAP	23	96	4
TAP	23	192	3
TAP	23	288	2
TAP	24	0	6
TAP	24	96	7
TAP	24	192	0
TAP	24	288	1
TAP	25	0	2
TAP	25	96	3
TAP	25	192	4
TAP	25	288	5
TAP	26	0	2
TAP	26	0	3
TAP	26	192	4
TAP	26	192	5
TAP	27	0	1
TAP	27	0	2
TAP	27	96	2
TAP	27	96	3
TAP	27	192	3
TAP	27	192	4
TAP	27	288	4
TAP	27	288	5
TAP	28	0	5
TAP	28	0	6
TAP	28	192	6
TAP	28	192	7
STR	29	0	7
SI_	29	0	7	96	72	5
STR	29	192	0
SI_	29	192	0	96	72	4
HLD	30	0	5	288
TAP	30	192	4
TAP	30	288	4
HLD	31	0	2	288
TAP	31	192	3
TAP	31	288	3
HLD	32	0	6	288
TAP	32	192	4
TAP	32	288	4
HLD	33	0	0	192
TAP	33	192	7
TAP	33	288	1
TAP	33	288	6
BRK	34	0	0
BRK	34	0	4
TAP	34	192	1
TAP	34	192	5
TAP	35	0	2
TAP	35	0	6
TAP	35	192	3
TAP	35	192	7
TAP	36	0	3
TAP	36	0	7
TAP	36	96	2
TAP	36	96	6
TAP	36	192	1
TAP	36	192	5
TAP	36	288	0
TAP	36	288	4
STR	37	0	1
SCL	37	0	1	96	72	6
STR	37	192	5
SCL	37	192	5	96	72	2
TAP	38	0	0
TAP	38	96	0
TAP	38	96	1
TAP	38	192	7
TAP	38	288	6
TAP	38	288	7
TAP	39	0	6
TAP	39	0	7
TAP	39	96	4
TAP	39	96	5
TAP	39	192	2
TAP	39	192	3
TAP	39	288	0
TAP	39	288	1
STR	40	0	1
SCR	40	0	1	96	72	4
STR	40	192	6
SCL	40	192	6	96	72	3
BRK	41	0	1
TAP	42	0	1
TAP	42	0	2
TAP	42	96	2
TAP	42	96	3
TAP	42	192	5
TAP	42	192	6
TAP	42	288	4
TAP	42	288	5
TAP	43	0	1
TAP	43	0	2
TAP	43	96	0
TAP	43	96	7
TAP	43	192	5
TAP	43	192	6
TAP	43	288	3
TAP	43	288	4
TAP	44	0	0
TAP	44	0	2
TAP	44	96	1
TAP	44	96	3
TAP	44	192	5
TAP	44	192	7
TAP	44	288	4
TAP	44	288	6
TAP	45	0	0
TAP	45	0	4
TAP	45	96	1
TAP	45	96	5
TAP	45	192	2
TAP	45	192	6
TAP	45	288	3
TAP	45	288	7
STR	46	0	0
SSL	46	0	0	96	192	4
STR	47	0	7
SSR	47	0	7	96	192	3
STR	48	0	1
SSL	48	0	1	96	192	5
STR	49	0	6
SSR	49	0	6	96	192	2

T_REC_TAP	146
T_REC_BRK	5
T_REC_XTP	0
T_REC_HLD	10
T_REC_XHO	0
T_REC_STR	16
T_REC_BST	0
T_REC_XST	0
T_REC_TTP	0
T_REC_THO	0
T_REC_SLD	16
T_REC_ALL	193
T_NUM_TAP	162
T_NUM_BRK	5
T_NUM_HLD	10
T_NUM_SLD	16
T_NUM_ALL	193
T_JUDGE_TAP	167
T_JUDGE_HLD	104
T_JUDGE_SLD	16
T_JUDGE_ALL	287
TTM_EACHPAIRS	49
TTM_SCR_TAP	81000
TTM_SCR_BRK	13000
TTM_SCR_HLD	10000
TTM_SCR_SLD	24000
TTM_SCR_ALL	128000
TTM_SCR_S	123700
TTM_SCR_SS	127500
TTM_RAT_ACV	10039

