VERSION	0.00.00	1.03.00
FES_MODE	0
BPM_DEF	102.000	102.000	102.000	102.000
MET_DEF	4	4
RESOLUTION	384
CLK_DEF	384
COMPATIBLE_CODE	MA2

BPM	0	0	102.000
MET	0	0	4	4

TAP	6	0	0
TAP	6	192	0
TAP	7	0	1
TAP	7	192	1
TAP	8	0	2
TAP	8	192	2
TAP	9	0	3
TAP	9	192	3
TAP	10	0	4
TAP	10	192	4
TAP	11	0	5
TAP	11	192	5
TAP	12	0	6
TAP	12	192	6
TAP	13	0	7
BRK	13	192	7
STR	14	0	0
SI_	14	0	0	96	192	3
STR	15	0	4
SI_	15	0	4	96	192	7
TAP	16	0	0
TAP	16	192	0
TAP	17	0	7
TAP	17	96	7
TAP	17	192	7
STR	18	0	6
SI_	18	0	6	96	192	2
STR	19	0	1
SI_	19	0	1	96	192	5
TAP	20	0	6
TAP	20	192	7
TAP	21	0	0
TAP	21	96	0
BRK	21	192	0
TAP	22	0	1
TAP	22	96	1
TAP	22	192	1
TAP	23	0	0
TAP	23	96	0
TAP	23	192	0
TAP	24	0	7
TAP	24	96	7
TAP	24	192	7
TAP	25	0	6
TAP	25	96	6
TAP	25	192	6
TAP	26	0	5
TAP	26	96	5
TAP	26	192	5
TAP	27	0	4
TAP	27	96	4
TAP	27	192	4
TAP	28	0	3
TAP	28	192	4
TAP	29	0	3
TAP	29	0	4
TAP	30	96	2
TAP	30	288	2
TAP	31	96	3
TAP	31	288	3
TAP	32	96	5
TAP	32	288	5
TAP	33	96	4
TAP	33	288	4
TAP	34	96	2
TAP	34	96	3
TAP	34	288	2
TAP	34	288	3
TAP	35	96	0
TAP	35	96	1
TAP	35	288	0
TAP	35	288	1
TAP	36	96	6
TAP	36	96	7
TAP	36	288	6
TAP	36	288	7
TAP	37	96	4
TAP	37	96	5
TAP	37	288	4
TAP	37	288	5
TAP	38	96	6
TAP	38	96	7
TAP	38	288	6
TAP	38	288	7
TAP	39	96	0
TAP	39	96	1
TAP	39	288	0
TAP	39	288	1
TAP	40	96	0
TAP	40	96	7
TAP	40	288	0
TAP	40	288	7
TAP	41	0	0
TAP	41	0	7
TAP	42	96	2
TAP	42	288	2
TAP	42	288	3
TAP	43	96	2
TAP	43	288	2
TAP	43	288	3
TAP	44	96	5
TAP	44	288	4
TAP	44	288	5
TAP	45	96	5
TAP	45	288	4
TAP	45	288	5
TAP	46	96	2
TAP	46	288	2
TAP	47	96	3
TAP	47	288	3
TAP	48	96	4
TAP	48	288	4
STR	49	96	5
SI_	49	96	5	96	192	1

T_REC_TAP	102
T_REC_BRK	2
T_REC_XTP	0
T_REC_HLD	0
T_REC_XHO	0
T_REC_STR	5
T_REC_BST	0
T_REC_XST	0
T_REC_TTP	0
T_REC_THO	0
T_REC_SLD	5
T_REC_ALL	114
T_NUM_TAP	107
T_NUM_BRK	2
T_NUM_HLD	0
T_NUM_SLD	5
T_NUM_ALL	114
T_JUDGE_TAP	109
T_JUDGE_HLD	0
T_JUDGE_SLD	5
T_JUDGE_ALL	114
TTM_EACHPAIRS	20
TTM_SCR_TAP	53500
TTM_SCR_BRK	5200
TTM_SCR_HLD	0
TTM_SCR_SLD	7500
TTM_SCR_ALL	66200
TTM_SCR_S	64050
TTM_SCR_SS	66000
TTM_RAT_ACV	10030

