VERSION	0.00.00	1.03.00
FES_MODE	0
BPM_DEF	138.000	138.000	138.000	138.000
MET_DEF	4	4
RESOLUTION	384
CLK_DEF	384
COMPATIBLE_CODE	MA2

BPM	0	0	138.000
MET	0	0	4	4

STR	1	288	0
SCL	1	288	0	96	48	5
TAP	1	336	0
STR	2	96	7
SCR	2	96	7	96	48	2
TAP	2	144	7
STR	2	288	6
SCL	2	288	6	96	48	3
TAP	2	336	6
STR	3	96	1
SCR	3	96	1	96	48	4
TAP	3	144	1
TAP	3	288	5
TAP	3	336	3
TAP	3	336	4
HLD	4	48	2	288
TAP	4	96	3
TAP	4	144	1
TAP	4	240	0
TAP	4	336	7
TAP	5	48	2
TAP	5	48	6
TAP	5	96	1
TAP	5	96	5
TAP	5	144	0
TAP	5	144	4
TAP	5	192	3
TAP	5	192	7
STR	5	288	4
SCL	5	288	4	96	48	1
TAP	5	336	4
STR	6	96	3
SCR	6	96	3	96	48	6
TAP	6	144	3
STR	6	288	2
SCL	6	288	2	96	48	7
TAP	6	336	2
STR	7	96	5
SCR	7	96	5	96	48	0
TAP	7	144	5
TAP	7	288	1
TAP	7	336	0
TAP	7	336	7
HLD	8	48	6	288
TAP	8	96	7
TAP	8	144	5
TAP	8	240	4
TAP	8	336	3
TAP	9	48	2
TAP	9	48	6
TAP	9	96	3
TAP	9	96	7
TAP	9	144	0
TAP	9	144	4
TAP	9	192	1
TAP	9	192	5
TAP	9	240	3
TAP	9	240	4
BRK	9	288	0
BRK	9	288	7
TAP	10	0	1
TAP	10	0	6
STR	10	96	2
SUL	10	96	2	96	48	5
TAP	10	144	3
STR	10	240	6
SCR	10	240	6	96	48	1
TAP	10	288	5
TAP	10	336	6
STR	11	48	2
SCR	11	48	2	96	48	5
TAP	11	96	1
TAP	11	144	2
STR	11	288	5
SUR	11	288	5	96	48	2
TAP	11	336	4
STR	12	48	1
SCL	12	48	1	96	48	6
TAP	12	96	2
TAP	12	144	1
STR	12	240	5
SCL	12	240	5	96	48	2
TAP	12	288	6
TAP	12	336	5
STR	13	48	1
SUL	13	48	1	96	48	4
STR	13	96	0
SUR	13	96	0	96	48	5
STR	13	288	6
SUL	13	288	6	96	48	1
TAP	13	336	7
STR	14	48	2
SCR	14	48	2	96	48	5
TAP	14	96	1
TAP	14	144	2
STR	14	240	6
SCR	14	240	6	96	48	1
TAP	14	288	5
TAP	14	336	6
STR	15	48	2
SCR	15	48	2	96	48	5
TAP	15	96	1
TAP	15	144	2
STR	15	288	1
SUR	15	288	1	96	48	6
TAP	15	336	0
STR	16	48	5
SCL	16	48	5	96	48	2
TAP	16	96	6
TAP	16	144	5
STR	16	240	1
SCL	16	240	1	96	48	6
TAP	16	288	2
TAP	16	336	1
STR	17	48	6
SUR	17	48	6	96	48	3
STR	17	96	7
SUL	17	96	7	96	48	2
TAP	17	336	0
STR	18	0	0
SCL	18	0	0	96	48	5
TAP	18	48	0
TAP	18	96	0
TAP	18	144	0
STR	18	192	0
SCR	18	192	0	96	48	3
TAP	18	240	0
TAP	18	288	0
TAP	18	336	0
STR	19	0	0
SCL	19	0	0	96	72	4
TAP	19	48	0
STR	19	96	0
SCR	19	96	0	96	72	4
TAP	19	144	0
HLD	19	192	0	144
TAP	19	336	7
TAP	20	0	6
TAP	20	48	5
STR	20	96	4
SCR	20	96	4	96	48	7
TAP	20	144	3
STR	20	192	4
SCL	20	192	4	96	48	1
STR	20	288	4
SCR	20	288	4	96	144	3
TAP	21	336	7
STR	22	0	7
SCR	22	0	7	96	48	2
TAP	22	48	7
TAP	22	96	7
TAP	22	144	7
STR	22	192	7
SCL	22	192	7	96	48	4
TAP	22	240	7
TAP	22	288	7
TAP	22	336	7
STR	23	0	7
SCR	23	0	7	96	72	3
TAP	23	48	7
STR	23	96	7
SCL	23	96	7	96	72	3
TAP	23	144	7
HLD	23	192	7	144
TAP	23	336	0
TAP	24	0	1
TAP	24	48	2
STR	24	96	3
SCL	24	96	3	96	48	0
TAP	24	144	4
STR	24	192	3
SCR	24	192	3	96	72	7
STR	24	288	3
SCL	24	288	3	96	144	4
TAP	25	144	7
BRK	25	192	3
BRK	25	192	7
STR	25	288	2
SCL	25	288	2	96	72	6
HLD	26	0	2	144
STR	26	144	5
SCR	26	144	5	96	72	1
HLD	26	192	5	144
TAP	26	336	2
TAP	27	0	3
TAP	27	48	4
STR	27	96	5
SCR	27	96	5	96	48	0
TAP	27	144	6
TAP	27	192	7
HLD	27	336	1	240
TAP	28	0	2
TAP	28	48	3
TAP	28	96	4
TAP	28	144	5
HLD	28	192	6	192
TAP	28	240	5
TAP	28	288	4
TAP	28	336	3
HLD	29	0	2	48
TAP	29	48	1
HLD	29	96	5	48
TAP	29	144	6
TAP	29	192	0
TAP	29	192	7
STR	29	288	5
SCR	29	288	5	96	72	1
HLD	30	0	5	144
STR	30	144	2
SCL	30	144	2	96	72	6
HLD	30	192	2	144
TAP	30	336	5
TAP	31	0	4
TAP	31	48	3
STR	31	96	2
SCL	31	96	2	96	48	7
TAP	31	144	1
TAP	31	192	0
HLD	31	336	6	240
TAP	32	0	5
TAP	32	48	4
TAP	32	96	3
TAP	32	144	2
HLD	32	192	1	192
TAP	32	240	2
TAP	32	288	3
TAP	32	336	4
TAP	33	0	5
STR	33	96	6
SI_	33	96	6	96	48	4
STR	33	192	1
SI_	33	192	1	96	48	3
STR	33	288	4
SV_	33	288	4	96	48	3
STR	34	0	2
SUR	34	0	2	96	48	7
TAP	34	192	0
TAP	34	192	6
TAP	34	240	1
TAP	34	240	5
TAP	34	288	2
TAP	34	288	4
TAP	34	336	3
TAP	34	336	7
BRK	35	48	5
BRK	35	48	6
BRK	35	96	1
BRK	35	96	2
BRK	35	144	3
BRK	35	144	4
BRK	35	192	0
BRK	35	192	7
STR	36	0	0
SCR	36	0	0	96	48	3
STR	36	0	4
SCR	36	0	4	96	48	7
STR	36	192	3
SCL	36	192	3	96	48	0
STR	36	192	7
SCL	36	192	7	96	48	4
STR	37	0	3
SUL	37	0	3	96	48	7
STR	37	0	7
SUL	37	0	7	96	48	3
STR	37	192	0
SUR	37	192	0	96	48	4
STR	37	192	4
SUR	37	192	4	96	48	0
STR	38	0	0
SCR	38	0	0	96	48	3
STR	38	0	4
SUL	38	0	4	96	48	7
STR	38	192	3
SUR	38	192	3	96	48	0
STR	38	192	7
SCL	38	192	7	96	48	4
TAP	39	0	1
TAP	39	0	5
TAP	39	48	2
TAP	39	48	6
TAP	39	96	3
TAP	39	96	7
TAP	39	144	0
TAP	39	144	4
STR	39	192	1
SCL	39	192	1	96	48	6
STR	39	192	5
SCL	39	192	5	96	48	2
TAP	39	288	1
TAP	39	288	5
STR	40	0	3
SCL	40	0	3	96	48	0
STR	40	0	7
SCL	40	0	7	96	48	4
TAP	40	96	3
TAP	40	96	7
STR	40	192	0
SCR	40	192	0	96	48	3
STR	40	192	4
SCR	40	192	4	96	48	7
TAP	40	288	0
TAP	40	288	4
STR	41	0	0
SUR	41	0	0	96	48	4
STR	41	0	4
SUR	41	0	4	96	48	0
TAP	41	96	0
TAP	41	96	4
STR	41	192	3
SUL	41	192	3	96	48	7
STR	41	192	7
SUL	41	192	7	96	48	3
TAP	41	288	3
TAP	41	288	7
STR	42	0	3
SCL	42	0	3	96	48	0
STR	42	0	7
SUR	42	0	7	96	48	4
TAP	42	96	3
TAP	42	96	7
STR	42	192	0
SUL	42	192	0	96	48	3
STR	42	192	4
SCR	42	192	4	96	48	7
TAP	42	288	0
TAP	42	288	4
TAP	43	0	3
TAP	43	0	7
TAP	43	48	2
TAP	43	48	6
TAP	43	96	1
TAP	43	96	5
TAP	43	144	0
TAP	43	144	4
STR	43	192	3
SUR	43	192	3	96	48	0
STR	43	192	7
SUR	43	192	7	96	48	4
STR	44	0	1
SCL	44	0	1	96	48	6
STR	44	96	5
SCL	44	96	5	96	48	2
STR	44	192	0
SCL	44	192	0	96	48	5
STR	44	288	4
SCL	44	288	4	96	48	1
STR	45	0	7
SCL	45	0	7	96	48	4
STR	45	96	3
SCL	45	96	3	96	48	0
STR	45	192	6
SCL	45	192	6	96	48	3
STR	45	288	2
SCL	45	288	2	96	48	7
STR	46	0	5
SCL	46	0	5	96	48	2
STR	46	96	1
SCL	46	96	1	96	48	6
STR	46	192	4
SI_	46	192	4	96	48	0
TAP	47	0	1
TAP	47	0	7
TAP	47	48	2
TAP	47	48	6
TAP	47	96	3
TAP	47	96	5
TAP	47	144	0
TAP	47	144	4
STR	47	192	3
SCL	47	192	3	96	48	0
STR	47	192	7
SCL	47	192	7	96	48	4
BRK	47	288	3
BRK	47	288	7
STR	48	0	6
SCR	48	0	6	96	48	1
STR	48	96	2
SCR	48	96	2	96	48	5
TAP	48	96	6
TAP	48	192	2
STR	48	192	7
SCR	48	192	7	96	48	2
STR	48	288	3
SCR	48	288	3	96	48	6
TAP	48	288	7
STR	49	0	0
SCR	49	0	0	96	48	3
TAP	49	0	3
TAP	49	96	0
STR	49	96	4
SCR	49	96	4	96	48	7
STR	49	192	1
SCR	49	192	1	96	48	4
TAP	49	192	4
TAP	49	288	1
STR	49	288	5
SCR	49	288	5	96	48	0
STR	50	0	2
SCR	50	0	2	96	48	5
TAP	50	0	5
TAP	50	96	2
STR	50	96	6
SCR	50	96	6	96	48	1
STR	50	192	3
SI_	50	192	3	96	48	7
TAP	50	192	6
TAP	50	288	3
TAP	51	0	0
TAP	51	0	6
TAP	51	48	1
TAP	51	48	5
TAP	51	96	2
TAP	51	96	4
TAP	51	144	3
TAP	51	144	7
STR	51	192	0
SCR	51	192	0	96	48	3
STR	51	192	4
SCR	51	192	4	96	48	7
BRK	51	288	0
BRK	51	288	4
STR	52	96	0
SCL	52	96	0	96	48	5
TAP	52	144	0
STR	52	288	1
SCR	52	288	1	96	48	4
TAP	52	336	1
STR	53	96	6
SCL	53	96	6	96	48	3
TAP	53	144	6
TAP	53	288	2
TAP	53	336	3
TAP	53	336	4
HLD	54	48	5	288
TAP	54	96	4
TAP	54	144	6
TAP	54	240	7
HLD	54	336	2	240
TAP	55	48	3
TAP	55	96	1
TAP	55	144	0
TAP	55	192	7
STR	55	288	3
SCR	55	288	3	96	48	6
TAP	55	336	3
STR	56	96	4
SCL	56	96	4	96	48	1
TAP	56	144	4
STR	56	288	5
SCR	56	288	5	96	48	0
TAP	56	336	5
STR	57	96	2
SCL	57	96	2	96	48	7
TAP	57	144	2
TAP	57	288	6
TAP	57	336	0
TAP	57	336	7
HLD	58	48	2	192
TAP	58	96	3
TAP	58	144	1
TAP	58	240	0
TAP	58	336	1
TAP	58	336	6
TAP	59	48	5
TAP	59	96	4
TAP	59	144	3
TAP	59	192	2

T_REC_TAP	214
T_REC_BRK	16
T_REC_XTP	0
T_REC_HLD	17
T_REC_XHO	0
T_REC_STR	110
T_REC_BST	0
T_REC_XST	0
T_REC_TTP	0
T_REC_THO	0
T_REC_SLD	110
T_REC_ALL	467
T_NUM_TAP	324
T_NUM_BRK	16
T_NUM_HLD	17
T_NUM_SLD	110
T_NUM_ALL	467
T_JUDGE_TAP	340
T_JUDGE_HLD	65
T_JUDGE_SLD	110
T_JUDGE_ALL	515
TTM_EACHPAIRS	77
TTM_SCR_TAP	162000
TTM_SCR_BRK	41600
TTM_SCR_HLD	17000
TTM_SCR_SLD	165000
TTM_SCR_ALL	385600
TTM_SCR_S	372500
TTM_SCR_SS	384000
TTM_RAT_ACV	10041

