VERSION	0.00.00	1.03.00
FES_MODE	0
BPM_DEF	138.000	138.000	138.000	138.000
MET_DEF	4	4
RESOLUTION	384
CLK_DEF	384
COMPATIBLE_CODE	MA2

BPM	0	0	138.000
MET	0	0	4	4

HLD	2	0	1	384
TAP	2	192	3
HLD	3	0	5	384
TAP	3	192	7
HLD	4	0	2	192
HLD	4	192	0	192
TAP	5	0	7
TAP	5	96	6
TAP	5	192	4
TAP	5	192	5
HLD	6	0	6	384
TAP	6	192	4
HLD	7	0	2	384
TAP	7	192	0
HLD	8	0	5	192
HLD	8	192	7	192
TAP	9	0	0
TAP	9	96	1
TAP	9	192	2
TAP	9	192	3
TAP	9	288	1
TAP	9	288	6
STR	10	0	1
SCR	10	0	1	96	48	4
STR	10	192	6
SCL	10	192	6	96	48	3
STR	11	0	0
SCR	11	0	0	96	48	3
STR	11	192	7
SCL	11	192	7	96	48	4
STR	12	0	7
SCR	12	0	7	96	48	2
STR	12	192	0
SCL	12	192	0	96	48	5
TAP	13	0	2
TAP	13	96	1
TAP	13	192	0
TAP	13	192	7
TAP	13	288	6
STR	14	0	5
SCR	14	0	5	96	48	0
STR	14	192	2
SCL	14	192	2	96	48	7
STR	15	0	4
SCR	15	0	4	96	48	7
STR	15	192	3
SCL	15	192	3	96	48	0
STR	16	0	3
SCR	16	0	3	96	48	6
STR	16	192	4
SCL	16	192	4	96	48	1
TAP	17	0	5
TAP	17	96	6
BRK	17	192	0
BRK	17	192	7
TAP	18	0	0
TAP	18	0	1
TAP	18	96	2
TAP	18	96	3
TAP	18	192	4
TAP	18	192	5
TAP	18	288	6
TAP	18	288	7
TAP	19	0	0
TAP	19	0	1
TAP	19	96	2
TAP	19	96	3
HLD	19	192	4	96
HLD	19	192	6	96
TAP	20	0	4
TAP	20	0	5
TAP	20	96	2
TAP	20	96	3
TAP	20	192	0
TAP	20	192	1
TAP	20	288	6
TAP	20	288	7
HLD	21	0	4	96
TAP	21	0	5
TAP	21	96	3
TAP	21	192	2
HLD	21	192	3	96
TAP	21	288	4
TAP	22	0	5
TAP	22	0	6
TAP	22	96	0
TAP	22	96	7
TAP	22	192	1
TAP	22	192	2
TAP	22	288	3
TAP	22	288	4
TAP	23	0	5
TAP	23	0	6
TAP	23	96	0
TAP	23	96	7
HLD	23	192	1	96
HLD	23	192	3	96
TAP	24	0	3
TAP	24	0	4
TAP	24	96	1
TAP	24	96	2
TAP	24	192	0
TAP	24	192	7
TAP	24	288	5
TAP	24	288	6
HLD	25	0	3	96
TAP	25	0	4
HLD	25	96	2	96
TAP	25	192	1
TAP	25	288	0
TAP	25	288	4
HLD	26	0	1	144
TAP	26	144	5
HLD	26	192	5	144
TAP	26	336	3
TAP	27	0	6
TAP	27	48	2
TAP	27	96	5
TAP	27	144	1
HLD	27	192	4	96
TAP	27	288	0
HLD	28	0	5	192
TAP	28	96	4
HLD	28	192	2	192
TAP	28	288	3
TAP	29	0	1
TAP	29	48	1
TAP	29	96	0
TAP	29	144	0
TAP	29	192	1
TAP	29	192	6
TAP	29	288	3
TAP	29	288	7
HLD	30	0	6	144
TAP	30	144	2
HLD	30	192	2	144
TAP	30	336	4
TAP	31	0	1
TAP	31	48	5
TAP	31	96	2
TAP	31	144	6
HLD	31	192	3	96
TAP	31	288	7
HLD	32	0	2	192
TAP	32	96	3
HLD	32	192	5	192
TAP	32	288	4
HLD	33	0	6	96
HLD	33	96	7	96
HLD	33	192	0	96
HLD	33	288	1	96
HLD	34	0	2	576
TAP	34	240	0
TAP	34	288	7
HLD	34	336	6	240
BRK	35	288	0
BRK	35	288	7
STR	36	0	0
SCR	36	0	0	96	48	3
TAP	36	96	5
STR	36	192	5
SCR	36	192	5	96	48	0
TAP	36	288	2
STR	37	0	2
SCR	37	0	2	96	48	5
TAP	37	96	7
STR	37	192	7
SCR	37	192	7	96	48	2
TAP	37	288	4
HLD	38	0	4	96
HLD	38	96	2	96
HLD	38	192	0	96
HLD	38	288	6	96
TAP	39	0	3
TAP	39	48	4
TAP	39	96	2
TAP	39	144	5
TAP	39	192	3
TAP	39	288	2
TAP	39	288	6
STR	40	0	3
SCL	40	0	3	96	48	0
TAP	40	96	6
STR	40	192	6
SCL	40	192	6	96	48	3
TAP	40	288	1
STR	41	0	1
SCL	41	0	1	96	48	6
TAP	41	96	4
STR	41	192	4
SCL	41	192	4	96	48	1
TAP	41	288	7
HLD	42	0	7	96
HLD	42	96	1	96
HLD	42	192	3	96
HLD	42	288	5	96
TAP	43	0	0
TAP	43	48	7
TAP	43	96	1
TAP	43	144	6
BRK	43	192	0
TAP	43	288	2
TAP	43	288	6
STR	44	0	0
SCR	44	0	0	96	48	3
STR	44	0	4
SCR	44	0	4	96	48	7
STR	44	192	0
SCL	44	192	0	96	48	5
STR	44	192	4
SCL	44	192	4	96	48	1
STR	45	0	0
SCR	45	0	0	96	48	3
STR	45	0	4
SCR	45	0	4	96	48	7
STR	45	192	0
SCL	45	192	0	96	48	5
STR	45	192	4
SCL	45	192	4	96	48	1
HLD	46	0	0	96
HLD	46	96	6	96
HLD	46	192	4	96
HLD	46	288	2	96
TAP	47	0	1
TAP	47	48	0
TAP	47	96	2
TAP	47	144	7
TAP	47	192	1
TAP	47	288	3
TAP	47	288	7
STR	48	0	1
SCR	48	0	1	96	48	4
STR	48	0	5
SCR	48	0	5	96	48	0
STR	48	192	2
SCL	48	192	2	96	48	7
STR	48	192	6
SCL	48	192	6	96	48	3
STR	49	0	1
SCR	49	0	1	96	48	4
STR	49	0	5
SCR	49	0	5	96	48	0
STR	49	192	2
SCL	49	192	2	96	48	7
STR	49	192	6
SCL	49	192	6	96	48	3
HLD	50	0	5	96
HLD	50	96	1	96
HLD	50	192	3	96
HLD	50	288	7	96
TAP	51	0	5
TAP	51	48	4
TAP	51	96	6
TAP	51	144	3
BRK	51	192	5
TAP	51	288	0
TAP	51	288	4
STR	52	0	0
SCL	52	0	0	96	288	1
STR	53	0	0
SCL	53	0	0	96	288	1
STR	54	0	0
SCL	54	0	0	96	288	1
HLD	55	0	0	96
HLD	55	96	7	96
BRK	55	192	6
TAP	55	288	3
TAP	55	288	4
STR	56	0	4
SCL	56	0	4	96	288	5
STR	57	0	4
SCL	57	0	4	96	288	5
STR	58	0	4
SCL	58	0	4	96	288	5
HLD	59	0	4	96
HLD	59	96	3	96
BRK	59	192	2

T_REC_TAP	133
T_REC_BRK	8
T_REC_XTP	0
T_REC_HLD	52
T_REC_XHO	0
T_REC_STR	42
T_REC_BST	0
T_REC_XST	0
T_REC_TTP	0
T_REC_THO	0
T_REC_SLD	42
T_REC_ALL	277
T_NUM_TAP	175
T_NUM_BRK	8
T_NUM_HLD	52
T_NUM_SLD	42
T_NUM_ALL	277
T_JUDGE_TAP	183
T_JUDGE_HLD	161
T_JUDGE_SLD	42
T_JUDGE_ALL	386
TTM_EACHPAIRS	47
TTM_SCR_TAP	87500
TTM_SCR_BRK	20800
TTM_SCR_HLD	52000
TTM_SCR_SLD	63000
TTM_SCR_ALL	223300
TTM_SCR_S	215850
TTM_SCR_SS	222500
TTM_RAT_ACV	10035

