VERSION	0.00.00	1.03.00
FES_MODE	0
BPM_DEF	138.000	138.000	138.000	138.000
MET_DEF	4	4
RESOLUTION	384
CLK_DEF	384
COMPATIBLE_CODE	MA2

BPM	0	0	138.000
MET	0	0	4	4

HLD	2	0	0	96
HLD	2	192	2	96
HLD	3	0	4	96
HLD	3	192	6	96
HLD	4	0	7	96
HLD	4	192	5	96
HLD	5	0	3	96
TAP	5	192	1
TAP	6	0	0
TAP	6	0	1
TAP	6	192	6
TAP	6	192	7
TAP	7	0	7
TAP	7	96	0
TAP	7	192	1
TAP	8	0	4
TAP	8	0	5
TAP	8	192	2
TAP	8	192	3
TAP	9	0	3
TAP	9	96	4
BRK	9	192	5
TAP	10	0	7
TAP	10	96	7
TAP	10	192	3
TAP	10	288	3
TAP	11	0	5
TAP	11	96	5
TAP	11	192	1
TAP	11	288	1
TAP	12	0	6
TAP	12	96	6
TAP	12	192	2
TAP	12	288	2
TAP	13	0	6
TAP	13	96	1
TAP	13	192	0
TAP	13	192	7
HLD	14	0	1	192
HLD	14	192	0	192
HLD	15	0	7	192
TAP	15	192	6
HLD	16	0	6	192
HLD	16	192	7	192
HLD	17	0	0	192
TAP	17	192	1
STR	18	0	0
SCR	18	0	0	96	144	3
STR	19	0	4
SCR	19	0	4	96	144	7
STR	20	0	0
SUL	20	0	0	96	192	3
STR	21	0	7
SUR	21	0	7	96	192	4
TAP	22	0	0
TAP	22	192	4
TAP	23	0	0
TAP	23	0	4
TAP	23	96	1
TAP	23	96	5
TAP	23	192	2
TAP	23	192	6
TAP	24	0	7
TAP	24	192	3
TAP	25	0	3
TAP	25	0	7
TAP	25	96	2
TAP	25	96	6
TAP	25	192	1
TAP	25	192	5
BRK	25	288	0
BRK	25	288	4
TAP	26	0	1
TAP	26	96	0
TAP	26	96	1
TAP	26	288	0
TAP	26	288	1
TAP	27	96	6
TAP	27	96	7
TAP	27	288	6
TAP	27	288	7
TAP	28	96	2
TAP	28	96	3
TAP	28	288	2
TAP	28	288	3
TAP	29	96	4
TAP	29	96	5
TAP	29	288	4
TAP	29	288	5
TAP	30	0	2
TAP	30	96	3
TAP	30	192	4
TAP	30	288	5
TAP	31	0	5
TAP	31	96	4
TAP	31	192	3
TAP	31	288	2
TAP	32	0	1
TAP	32	96	1
TAP	32	192	6
TAP	32	288	6
TAP	33	0	0
TAP	33	96	0
TAP	33	192	7
TAP	33	288	7
TAP	34	0	0
TAP	34	0	7
TAP	34	96	1
TAP	34	96	6
TAP	34	192	2
TAP	34	192	5
TAP	34	288	3
TAP	34	288	4
STR	35	0	3
SI_	35	0	3	96	96	0
STR	35	0	4
SI_	35	0	4	96	96	7
BRK	36	0	0
TAP	36	96	1
TAP	36	192	2
TAP	36	288	3
TAP	37	0	4
TAP	37	96	5
TAP	37	192	6
TAP	37	288	7
TAP	38	0	1
TAP	38	96	0
TAP	38	192	7
TAP	38	288	6
TAP	39	0	6
TAP	39	0	7
TAP	39	96	0
TAP	39	96	7
TAP	39	192	0
TAP	39	192	1
TAP	40	0	7
TAP	40	96	6
TAP	40	192	5
TAP	40	288	4
TAP	41	0	3
TAP	41	96	2
TAP	41	192	1
TAP	41	288	0
TAP	42	0	2
TAP	42	96	3
TAP	42	192	4
TAP	42	288	5
TAP	43	0	4
TAP	43	0	5
TAP	43	96	3
TAP	43	96	4
TAP	43	192	2
TAP	43	192	3
HLD	44	0	0	96
HLD	44	192	2	96
HLD	45	0	4	96
HLD	45	192	6	96
HLD	46	0	7	96
HLD	46	192	5	96
HLD	47	0	3	96
BRK	47	192	1
TAP	48	0	5
TAP	48	0	6
TAP	48	192	3
TAP	48	192	4
TAP	49	0	1
TAP	49	0	2
TAP	49	192	0
TAP	49	192	7
TAP	50	0	5
TAP	50	96	4
TAP	50	192	3
TAP	50	288	2
TAP	51	0	1
TAP	51	96	0
TAP	51	192	7
TAP	51	288	6
STR	52	0	1
SCL	52	0	1	96	192	6
STR	53	0	5
SCL	53	0	5	96	192	2
STR	54	0	0
SUL	54	0	0	96	192	3
STR	55	0	7
SUR	55	0	7	96	192	4
TAP	56	0	0
TAP	56	0	4
TAP	56	192	1
TAP	56	192	5
TAP	57	0	2
TAP	57	0	6
TAP	57	192	3
TAP	57	192	7
STR	58	0	7
SUL	58	0	7	96	240	4
TAP	59	0	3
TAP	59	192	3

T_REC_TAP	150
T_REC_BRK	5
T_REC_XTP	0
T_REC_HLD	20
T_REC_XHO	0
T_REC_STR	11
T_REC_BST	0
T_REC_XST	0
T_REC_TTP	0
T_REC_THO	0
T_REC_SLD	11
T_REC_ALL	197
T_NUM_TAP	161
T_NUM_BRK	5
T_NUM_HLD	20
T_NUM_SLD	11
T_NUM_ALL	197
T_JUDGE_TAP	166
T_JUDGE_HLD	52
T_JUDGE_SLD	11
T_JUDGE_ALL	229
TTM_EACHPAIRS	39
TTM_SCR_TAP	80500
TTM_SCR_BRK	13000
TTM_SCR_HLD	20000
TTM_SCR_SLD	16500
TTM_SCR_ALL	130000
TTM_SCR_S	125650
TTM_SCR_SS	129500
TTM_RAT_ACV	10038

