VERSION	0.00.00	1.03.00
FES_MODE	0
BPM_DEF	138.000	138.000	138.000	138.000
MET_DEF	4	4
RESOLUTION	384
CLK_DEF	384
COMPATIBLE_CODE	MA2

BPM	0	0	138.000
MET	0	0	4	4

HLD	2	0	1	192
HLD	3	0	2	192
HLD	4	0	3	192
HLD	5	0	4	192
HLD	6	0	6	192
HLD	7	0	5	192
HLD	8	0	4	192
HLD	9	0	3	192
TAP	10	0	1
TAP	10	192	1
TAP	11	0	0
TAP	11	192	0
TAP	12	0	7
TAP	12	192	7
TAP	13	0	6
TAP	13	96	6
TAP	13	192	6
TAP	14	0	5
TAP	14	192	5
TAP	15	0	4
TAP	15	192	4
TAP	16	0	3
TAP	16	192	3
TAP	17	0	2
TAP	17	96	2
TAP	17	192	2
TAP	18	0	1
TAP	18	96	1
TAP	18	192	1
TAP	19	0	2
TAP	19	96	2
TAP	19	192	2
TAP	20	0	3
TAP	20	96	3
TAP	20	192	3
HLD	21	0	4	192
TAP	22	0	6
TAP	22	96	6
TAP	22	192	6
TAP	23	0	5
TAP	23	96	5
TAP	23	192	5
TAP	24	0	4
TAP	24	96	4
TAP	24	192	4
TAP	25	0	3
TAP	25	96	3
TAP	25	192	3
TAP	25	192	4
HLD	26	0	2	192
HLD	26	0	3	192
TAP	27	0	1
TAP	27	96	1
TAP	27	192	1
TAP	28	0	2
TAP	28	192	3
TAP	29	0	4
TAP	29	96	3
TAP	29	192	4
HLD	30	0	4	192
HLD	30	0	5	192
TAP	31	0	6
TAP	31	96	6
TAP	31	192	6
TAP	32	0	5
TAP	32	192	4
TAP	33	0	3
TAP	33	96	4
TAP	33	192	3
HLD	34	0	3	192
HLD	34	0	4	192
TAP	35	0	3
TAP	35	96	4
BRK	35	192	2
BRK	35	192	5
TAP	36	0	0
TAP	36	96	0
TAP	36	192	1
TAP	36	288	1
TAP	37	0	2
TAP	37	96	2
TAP	37	192	3
TAP	37	192	4
TAP	38	0	4
TAP	38	96	4
TAP	38	192	5
TAP	38	288	5
TAP	39	0	6
TAP	39	96	6
TAP	39	192	0
TAP	39	192	7
TAP	40	0	7
TAP	40	96	7
TAP	40	192	6
TAP	40	288	6
TAP	41	0	5
TAP	41	96	5
TAP	41	192	3
TAP	41	192	4
TAP	42	0	3
TAP	42	96	3
TAP	42	192	2
TAP	42	288	2
TAP	43	0	1
TAP	43	96	1
TAP	43	192	0
TAP	43	192	7
TAP	44	0	0
TAP	44	0	1
TAP	44	96	0
TAP	44	96	7
TAP	44	192	6
TAP	44	192	7
TAP	45	0	6
TAP	45	0	7
TAP	45	96	0
TAP	45	96	7
TAP	45	192	0
TAP	45	192	1
TAP	46	0	0
TAP	46	96	0
TAP	46	192	7
TAP	46	288	7
TAP	47	0	0
TAP	47	96	7
TAP	47	192	1
TAP	47	192	6
TAP	48	0	4
TAP	48	0	5
TAP	48	96	3
TAP	48	96	4
TAP	48	192	2
TAP	48	192	3
TAP	49	0	2
TAP	49	0	3
TAP	49	96	3
TAP	49	96	4
TAP	49	192	4
TAP	49	192	5
TAP	50	0	7
TAP	50	96	7
TAP	50	192	0
TAP	50	288	0
TAP	51	0	7
TAP	51	96	0
BRK	51	192	1
BRK	51	192	6
HLD	52	0	0	192
HLD	53	0	6	192
HLD	54	0	1	576
HLD	54	0	5	576
STR	56	0	0
SCR	56	0	0	96	288	3
STR	58	0	4
SCR	58	0	4	96	288	7

T_REC_TAP	128
T_REC_BRK	4
T_REC_XTP	0
T_REC_HLD	19
T_REC_XHO	0
T_REC_STR	2
T_REC_BST	0
T_REC_XST	0
T_REC_TTP	0
T_REC_THO	0
T_REC_SLD	2
T_REC_ALL	155
T_NUM_TAP	130
T_NUM_BRK	4
T_NUM_HLD	19
T_NUM_SLD	2
T_NUM_ALL	155
T_JUDGE_TAP	134
T_JUDGE_HLD	92
T_JUDGE_SLD	2
T_JUDGE_ALL	228
TTM_EACHPAIRS	24
TTM_SCR_TAP	65000
TTM_SCR_BRK	10400
TTM_SCR_HLD	19000
TTM_SCR_SLD	3000
TTM_SCR_ALL	97400
TTM_SCR_S	94100
TTM_SCR_SS	97000
TTM_RAT_ACV	10041

