VERSION	0.00.00	1.03.00
FES_MODE	0
BPM_DEF	150.000	150.000	150.000	150.000
MET_DEF	4	4
RESOLUTION	384
CLK_DEF	384
COMPATIBLE_CODE	MA2

BPM	0	0	150.000
MET	0	0	4	4

HLD	1	0	0	2976
STR	1	0	7
SI_	1	0	7	96	576	3
STR	3	0	3
SI_	3	0	3	96	576	6
STR	5	0	6
SI_	5	0	6	96	576	1
STR	7	0	1
SI_	7	0	1	96	576	4
TAP	9	0	3
STR	9	0	4
SI_	9	0	4	96	576	7
TAP	9	96	3
TAP	9	192	3
TAP	9	288	3
TAP	10	0	3
TAP	10	96	3
TAP	10	192	3
TAP	10	288	3
TAP	11	0	3
TAP	11	0	7
TAP	11	96	2
TAP	11	96	6
TAP	11	192	1
TAP	11	192	5
TAP	11	288	0
TAP	11	288	4
TAP	12	0	3
TAP	12	0	7
TAP	12	96	0
TAP	12	96	4
TAP	12	192	1
TAP	12	192	5
TAP	12	288	2
TAP	12	288	6
TAP	13	0	3
TAP	13	48	3
TAP	13	96	4
TAP	13	144	4
TAP	13	192	2
TAP	13	240	2
TAP	13	288	5
TAP	13	336	5
TAP	14	0	1
TAP	14	48	1
TAP	14	96	6
TAP	14	144	6
TAP	14	192	0
TAP	14	240	0
TAP	14	288	7
TAP	14	336	7
TAP	15	0	0
TAP	15	24	7
TAP	15	48	1
TAP	15	72	6
TAP	15	96	2
TAP	15	120	5
TAP	15	144	3
TAP	15	168	4
TAP	15	192	3
TAP	15	216	4
TAP	15	240	2
TAP	15	264	5
TAP	15	288	1
TAP	15	312	6
TAP	15	336	0
TAP	15	360	7
TAP	16	0	0
TAP	16	12	1
TAP	16	24	2
TAP	16	36	3
TAP	16	48	4
TAP	16	60	5
TAP	16	72	6
TAP	16	84	7
TAP	16	96	0
TAP	16	108	1
TAP	16	120	2
TAP	16	132	3
TAP	16	144	4
TAP	16	156	5
TAP	16	168	6
TAP	16	180	7
TAP	16	192	0
TAP	16	204	1
TAP	16	216	2
TAP	16	228	3
TAP	16	240	4
TAP	16	252	5
TAP	16	264	6
TAP	16	276	7
TAP	16	288	0
TAP	16	300	1
TAP	16	312	2
TAP	16	324	3
TAP	16	336	4
TAP	16	348	5
TAP	16	360	6
TAP	16	372	7
BRK	17	0	0
BRK	17	0	4
TAP	18	0	0
TAP	18	0	4
TAP	18	48	2
TAP	18	48	6
TAP	18	144	1
TAP	18	144	3
TAP	18	240	4
TAP	18	240	6
TAP	18	336	0
TAP	18	336	7
STR	19	0	1
SI_	19	0	1	96	48	4
TAP	19	0	6
TAP	19	48	1
TAP	19	96	1
TAP	19	96	6
STR	19	192	4
SI_	19	192	4	96	48	0
TAP	19	192	7
TAP	19	288	4
TAP	19	288	7
TAP	20	0	1
STR	20	0	6
SI_	20	0	6	96	48	3
TAP	20	48	6
TAP	20	96	1
TAP	20	96	6
TAP	20	192	0
STR	20	192	3
SI_	20	192	3	96	48	7
TAP	20	288	0
TAP	20	288	3
STR	21	0	0
SCL	21	0	0	96	96	5
STR	21	96	5
SI_	21	96	5	96	96	1
STR	21	192	1
SCR	21	192	1	96	48	4
TAP	21	288	6
STR	22	0	7
SCR	22	0	7	96	96	2
STR	22	96	2
SI_	22	96	2	96	96	6
STR	22	192	6
SCL	22	192	6	96	48	3
TAP	22	288	1
STR	23	0	2
SI_	23	0	2	96	48	7
STR	23	0	4
SI_	23	0	4	96	48	7
TAP	23	96	2
TAP	23	96	4
STR	23	192	1
SI_	23	192	1	96	48	4
STR	23	192	7
SI_	23	192	7	96	48	4
TAP	23	288	1
TAP	23	288	7
STR	24	0	3
SI_	24	0	3	96	48	0
STR	24	0	5
SI_	24	0	5	96	48	0
TAP	24	96	3
TAP	24	96	5
STR	24	192	0
SI_	24	192	0	96	48	3
STR	24	192	6
SI_	24	192	6	96	48	3
TAP	24	288	0
TAP	24	288	6
TAP	25	48	2
TAP	25	96	3
TAP	25	144	2
TAP	25	192	5
TAP	25	240	4
TAP	25	288	3
TAP	25	336	2
TAP	26	0	6
TAP	26	0	7
TAP	26	96	0
TAP	26	96	1
TAP	26	192	3
STR	26	192	4
SI_	26	192	4	96	48	0
TAP	26	240	5
BRK	26	288	5
STR	27	0	5
SCR	27	0	5	96	96	0
STR	27	96	0
SCR	27	96	0	96	96	3
STR	27	192	3
SI_	27	192	3	96	48	7
BRK	27	288	0
STR	28	0	1
SI_	28	0	1	96	48	5
STR	28	96	3
SI_	28	96	3	96	48	7
STR	28	192	4
SI_	28	192	4	96	48	0
TAP	28	288	6
STR	29	0	2
SCL	29	0	2	96	96	7
STR	29	96	7
SCL	29	96	7	96	96	4
STR	29	192	4
SI_	29	192	4	96	48	0
BRK	29	288	7
STR	30	0	0
SSL	30	0	0	96	96	4
STR	30	192	7
SSR	30	192	7	96	96	3
STR	31	0	2
SCL	31	0	2	96	96	7
STR	31	96	7
SCL	31	96	7	96	96	4
STR	31	192	4
SI_	31	192	4	96	48	0
BRK	31	288	7
STR	32	0	6
SI_	32	0	6	96	48	2
STR	32	96	4
SI_	32	96	4	96	48	0
STR	32	192	3
SI_	32	192	3	96	48	7
TAP	32	288	1
STR	33	0	5
SCR	33	0	5	96	96	0
STR	33	96	0
SCR	33	96	0	96	96	3
STR	33	192	3
SI_	33	192	3	96	48	7
BRK	33	288	0
TAP	34	0	6
TAP	34	0	7
TAP	34	48	0
TAP	34	48	1
TAP	34	120	0
TAP	34	168	7
TAP	34	192	7
TAP	34	288	1
TAP	34	288	6
HLD	35	48	2	96
TAP	35	96	3
TAP	35	144	4
HLD	35	240	5	96
TAP	35	288	4
TAP	35	336	3
HLD	36	48	1	96
TAP	36	96	3
TAP	36	144	5
HLD	36	240	6	96
TAP	36	288	4
TAP	36	336	2
HLD	37	48	0	96
TAP	37	96	3
TAP	37	144	6
HLD	37	240	7	96
TAP	37	288	4
TAP	37	336	1
STR	38	48	0
SCR	38	48	0	96	48	4
TAP	38	96	0
STR	38	144	0
SCL	38	144	0	96	48	4
TAP	38	240	0
STR	39	48	1
SI_	39	48	1	96	48	4
TAP	39	96	4
TAP	39	144	5
STR	39	240	6
SI_	39	240	6	96	48	3
TAP	39	288	3
TAP	39	336	2
STR	40	48	0
SI_	40	48	0	96	48	5
TAP	40	96	4
TAP	40	144	6
STR	40	240	7
SI_	40	240	7	96	48	2
TAP	40	288	3
TAP	40	336	1
STR	41	48	0
SI_	41	48	0	96	48	4
STR	41	96	4
SI_	41	96	4	96	48	1
STR	42	0	0
SCL	42	0	0	96	96	4
STR	42	0	4
SCL	42	0	4	96	96	0
STR	42	96	0
SSL	42	96	0	96	96	4
STR	43	0	1
SUL	43	0	1	96	192	3
TAP	43	288	7
STR	44	0	7
SCL	44	0	7	96	96	3
STR	44	192	1
SCL	44	192	1	96	96	5
STR	44	336	4
SCR	44	336	4	96	624	3
TAP	45	96	3
TAP	45	192	4
TAP	45	288	5
TAP	46	0	6
TAP	46	96	7
TAP	46	192	0
TAP	46	288	1
STR	47	0	5
SUL	47	0	5	96	192	7
TAP	47	288	1
STR	48	0	1
SCR	48	0	1	96	96	4
STR	48	192	5
SCL	48	192	5	96	96	2
STR	49	0	0
SI_	49	0	0	96	96	4
STR	49	192	2
SI_	49	192	2	96	96	7
STR	49	336	5
SUL	49	336	5	96	240	0
TAP	50	96	7
TAP	50	192	6
TAP	50	288	5
STR	51	0	6
SUR	51	0	6	96	192	4
TAP	51	288	0
STR	52	0	0
SCR	52	0	0	96	96	4
STR	52	192	6
SCR	52	192	6	96	96	2
STR	52	336	3
SCL	52	336	3	96	624	4
TAP	53	96	4
TAP	53	192	3
TAP	53	288	2
TAP	54	0	1
TAP	54	96	0
TAP	54	192	7
TAP	54	288	6
STR	55	0	2
SUR	55	0	2	96	192	0
TAP	55	288	6
STR	56	0	6
SCL	56	0	6	96	96	2
STR	56	192	1
SI_	56	192	1	96	96	5
TAP	57	0	3
STR	57	96	3
SI_	57	96	3	96	192	7
TAP	57	192	2
TAP	57	288	1
TAP	58	0	0
TAP	58	48	0
TAP	58	96	7
TAP	58	144	7
TAP	58	192	6
TAP	58	216	5
TAP	58	240	4
TAP	58	264	3
TAP	58	288	2
TAP	58	312	1
TAP	58	336	0
TAP	58	360	7
STR	59	0	1
SI_	59	0	1	96	48	4
HLD	59	0	6	96
TAP	59	48	1
TAP	59	96	1
STR	59	192	4
SI_	59	192	4	96	48	0
HLD	59	192	7	96
TAP	59	288	4
HLD	60	0	1	96
STR	60	0	6
SI_	60	0	6	96	48	3
TAP	60	48	6
TAP	60	96	6
HLD	60	192	0	96
STR	60	192	3
SI_	60	192	3	96	48	7
TAP	60	288	3
STR	61	0	0
SUR	61	0	0	96	96	5
STR	61	96	5
SUR	61	96	5	96	96	1
STR	61	192	1
SCR	61	192	1	96	48	4
TAP	61	288	6
STR	62	0	7
SUL	62	0	7	96	96	2
STR	62	96	2
SUL	62	96	2	96	96	6
STR	62	192	6
SCL	62	192	6	96	48	3
TAP	62	288	1
STR	63	0	2
SI_	63	0	2	96	48	7
STR	63	0	6
SI_	63	0	6	96	48	3
TAP	63	96	2
TAP	63	96	6
STR	63	192	1
SI_	63	192	1	96	48	4
STR	63	192	5
SI_	63	192	5	96	48	0
TAP	63	288	1
TAP	63	288	5
STR	64	0	2
SI_	64	0	2	96	48	7
STR	64	0	6
SI_	64	0	6	96	48	3
TAP	64	96	2
TAP	64	96	6
STR	64	192	1
SI_	64	192	1	96	48	4
STR	64	192	5
SI_	64	192	5	96	48	0
TAP	64	288	1
TAP	64	288	5
TAP	65	48	2
TAP	65	96	6
TAP	65	144	3
TAP	65	192	4
TAP	65	192	5
TAP	65	240	3
TAP	65	240	4
TAP	65	288	2
TAP	65	288	3
TAP	66	0	6
TAP	66	0	7
TAP	66	48	0
TAP	66	96	0
HLD	66	96	1	96
STR	66	192	4
SI_	66	192	4	96	48	0
TAP	66	240	5
BRK	66	288	5
STR	67	0	1
SI_	67	0	1	96	48	4
STR	67	0	2
SI_	67	0	2	96	48	6
TAP	67	48	1
TAP	67	96	1
TAP	67	96	2
STR	67	192	5
SI_	67	192	5	96	48	1
STR	67	192	6
SI_	67	192	6	96	48	3
TAP	67	288	5
TAP	67	288	6
STR	68	0	1
SI_	68	0	1	96	48	4
STR	68	0	2
SI_	68	0	2	96	48	6
TAP	68	48	1
TAP	68	96	1
TAP	68	96	2
STR	68	192	5
SI_	68	192	5	96	48	1
STR	68	192	6
SI_	68	192	6	96	48	3
TAP	68	288	5
TAP	68	288	6
STR	69	0	3
SUL	69	0	3	96	96	6
STR	69	96	6
SUL	69	96	6	96	96	2
STR	69	192	2
SCL	69	192	2	96	48	7
TAP	69	288	6
STR	70	0	4
SUR	70	0	4	96	96	1
STR	70	96	1
SUR	70	96	1	96	96	5
STR	70	192	5
SCR	70	192	5	96	48	0
TAP	70	288	1
STR	71	0	3
SI_	71	0	3	96	48	6
STR	71	0	7
SI_	71	0	7	96	48	2
TAP	71	96	3
TAP	71	96	7
STR	71	192	0
SI_	71	192	0	96	48	5
STR	71	192	4
SI_	71	192	4	96	48	1
TAP	71	288	0
TAP	71	288	4
STR	72	0	3
SI_	72	0	3	96	48	6
STR	72	0	7
SI_	72	0	7	96	48	2
TAP	72	96	3
TAP	72	96	7
STR	72	192	0
SI_	72	192	0	96	48	5
STR	72	192	4
SI_	72	192	4	96	48	1
TAP	72	288	0
TAP	72	288	4
TAP	73	48	2
TAP	73	48	6
HLD	73	96	1	96
TAP	73	96	5
TAP	73	192	2
TAP	73	240	4
TAP	73	288	5
TAP	74	0	6
TAP	74	0	7
TAP	74	48	0
TAP	74	96	0
HLD	74	96	1	96
STR	74	192	4
SI_	74	192	4	96	48	0
TAP	74	240	5
BRK	74	288	6
TAP	75	48	2
TAP	75	48	6
HLD	75	96	1	96
TAP	75	96	5
TAP	75	192	2
TAP	75	240	4
TAP	75	288	5
TAP	76	0	6
TAP	76	0	7
TAP	76	48	0
TAP	76	96	0
HLD	76	96	1	96
STR	76	192	4
SI_	76	192	4	96	48	0
TAP	76	240	5
BRK	76	288	6
TAP	77	48	1
TAP	77	96	0
TAP	77	144	1
TAP	77	192	2
TAP	77	192	6
TAP	77	288	0
TAP	77	288	4
STR	78	0	2
SCR	78	0	2	96	96	6
STR	78	0	6
SCR	78	0	6	96	96	2
BRK	78	288	0
STR	79	0	1
SCL	79	0	1	96	96	5
STR	79	0	5
SCL	79	0	5	96	96	1
BRK	79	288	0
STR	80	0	3
SCR	80	0	3	96	96	7
STR	80	0	7
SCR	80	0	7	96	96	3
BRK	80	288	0
HLD	81	0	1	96
HLD	81	96	3	96
HLD	81	192	5	96
TAP	81	288	7
HLD	82	0	6	96
HLD	82	96	4	96
HLD	82	192	2	96
TAP	82	288	0
TAP	83	0	0
TAP	83	0	4
TAP	83	48	2
TAP	83	48	6
TAP	83	120	3
TAP	83	120	5
TAP	83	168	2
STR	83	192	4
SI_	83	192	4	96	48	0
BRK	83	288	7
TAP	84	0	3
TAP	84	0	7
TAP	84	48	1
TAP	84	48	5
TAP	84	120	2
TAP	84	120	4
TAP	84	168	5
STR	84	192	3
SI_	84	192	3	96	48	7
BRK	84	288	0
TAP	85	0	0
TAP	85	0	4
TAP	85	48	2
TAP	85	48	6
TAP	85	120	3
TAP	85	120	5
TAP	85	168	2
TAP	85	192	4
TAP	85	288	0
TAP	85	288	7
STR	86	0	1
SUR	86	0	1	96	576	4
STR	86	0	6
SUL	86	0	6	96	576	3

T_REC_TAP	309
T_REC_BRK	15
T_REC_XTP	0
T_REC_HLD	22
T_REC_XHO	0
T_REC_STR	126
T_REC_BST	0
T_REC_XST	0
T_REC_TTP	0
T_REC_THO	0
T_REC_SLD	126
T_REC_ALL	598
T_NUM_TAP	435
T_NUM_BRK	15
T_NUM_HLD	22
T_NUM_SLD	126
T_NUM_ALL	598
T_JUDGE_TAP	450
T_JUDGE_HLD	104
T_JUDGE_SLD	126
T_JUDGE_ALL	680
TTM_EACHPAIRS	96
TTM_SCR_TAP	217500
TTM_SCR_BRK	39000
TTM_SCR_HLD	22000
TTM_SCR_SLD	189000
TTM_SCR_ALL	467500
TTM_SCR_S	452050
TTM_SCR_SS	466000
TTM_RAT_ACV	10032

