VERSION	0.00.00	1.03.00
FES_MODE	0
BPM_DEF	150.000	150.000	150.000	150.000
MET_DEF	4	4
RESOLUTION	384
CLK_DEF	384
COMPATIBLE_CODE	MA2

BPM	0	0	150.000
MET	0	0	4	4

HLD	1	0	2	768
HLD	3	0	6	768
HLD	5	0	3	768
HLD	7	0	7	768
HLD	9	0	4	2976
TAP	9	96	5
TAP	9	192	5
TAP	9	288	5
TAP	10	0	5
TAP	10	96	5
TAP	10	192	5
TAP	10	288	5
TAP	11	0	5
TAP	11	96	5
TAP	11	192	5
TAP	11	288	5
TAP	12	0	5
TAP	12	96	5
TAP	12	192	5
TAP	12	288	5
TAP	13	0	5
TAP	13	96	5
TAP	13	192	5
TAP	13	288	5
TAP	14	0	5
TAP	14	96	5
TAP	14	192	5
TAP	14	288	5
TAP	15	0	5
TAP	15	96	5
TAP	15	192	5
TAP	15	288	5
TAP	16	0	5
TAP	16	96	5
TAP	16	192	5
TAP	16	288	5
STR	17	0	2
SCL	17	0	2	96	480	5
TAP	19	0	1
HLD	19	0	5	288
TAP	19	96	2
TAP	19	192	3
TAP	19	288	4
TAP	20	0	2
HLD	20	0	6	288
TAP	20	96	1
TAP	20	192	0
TAP	20	288	7
STR	21	0	1
SCR	21	0	1	96	192	4
STR	22	0	6
SCL	22	0	6	96	192	3
TAP	23	0	0
TAP	23	96	4
TAP	23	96	5
TAP	23	192	0
TAP	23	288	4
TAP	23	288	5
TAP	24	0	7
TAP	24	96	2
TAP	24	96	3
TAP	24	192	7
TAP	24	288	2
TAP	24	288	3
TAP	25	0	4
TAP	25	96	5
TAP	25	192	6
TAP	25	288	7
STR	26	0	0
SI_	26	0	0	96	48	3
HLD	26	192	4	96
BRK	26	288	1
TAP	27	0	5
TAP	27	96	4
TAP	27	192	5
BRK	27	288	0
TAP	28	0	1
TAP	28	96	2
TAP	28	192	3
TAP	28	288	4
TAP	29	0	5
TAP	29	96	4
TAP	29	192	5
BRK	29	288	0
TAP	30	0	6
STR	30	96	1
SCR	30	96	1	96	96	4
TAP	31	0	5
TAP	31	96	4
TAP	31	192	5
BRK	31	288	0
TAP	32	0	1
TAP	32	96	2
TAP	32	192	3
TAP	32	288	4
TAP	33	0	5
TAP	33	96	4
TAP	33	192	5
BRK	33	288	0
TAP	34	0	6
STR	34	96	1
SCR	34	96	1	96	96	4
TAP	35	0	0
TAP	35	96	7
TAP	35	192	6
TAP	35	288	1
TAP	35	288	5
TAP	36	0	4
TAP	36	96	3
TAP	36	192	2
TAP	36	288	1
TAP	36	288	5
TAP	37	0	3
TAP	37	96	4
TAP	37	192	5
TAP	37	288	2
TAP	37	288	6
TAP	38	0	7
TAP	38	96	0
TAP	38	192	1
TAP	38	288	2
TAP	38	288	6
TAP	39	0	7
TAP	39	96	0
TAP	39	192	6
TAP	39	288	1
TAP	39	288	5
TAP	40	0	3
TAP	40	96	7
TAP	40	192	2
TAP	40	192	6
TAP	40	288	1
TAP	40	288	5
TAP	41	0	0
TAP	41	96	7
TAP	41	192	1
TAP	41	288	2
TAP	41	288	6
TAP	42	0	4
STR	42	96	0
SI_	42	96	0	96	96	3
HLD	43	0	4	288
TAP	43	96	1
TAP	43	192	0
TAP	43	288	7
HLD	44	0	3	288
TAP	44	96	6
TAP	44	192	7
TAP	44	288	0
HLD	45	0	2	96
TAP	45	96	3
HLD	45	192	5	96
TAP	45	288	4
HLD	46	0	1	96
TAP	46	96	0
HLD	46	192	6	96
TAP	46	288	7
HLD	47	0	3	288
TAP	47	96	7
TAP	47	192	0
TAP	47	288	1
HLD	48	0	4	288
TAP	48	96	0
TAP	48	192	7
TAP	48	288	6
STR	49	0	0
SCR	49	0	0	96	96	3
STR	49	192	4
SCR	49	192	4	96	96	7
STR	50	0	0
SSL	50	0	0	96	192	4
HLD	51	0	5	288
TAP	51	96	3
TAP	51	192	1
TAP	51	288	7
HLD	52	0	2	288
TAP	52	96	4
TAP	52	192	6
TAP	52	288	0
HLD	53	0	6	96
TAP	53	96	5
HLD	53	192	1	96
TAP	53	288	2
HLD	54	0	5	96
TAP	54	96	7
HLD	54	192	2	96
TAP	54	288	0
STR	55	0	4
SUL	55	0	4	96	192	6
TAP	55	0	5
TAP	56	0	2
STR	56	0	3
SUR	56	0	3	96	192	1
STR	57	0	0
SCL	57	0	0	96	192	5
STR	57	0	7
SCR	57	0	7	96	192	2
TAP	58	0	3
TAP	58	0	4
TAP	58	96	1
TAP	58	96	5
TAP	58	192	2
TAP	58	192	6
BRK	58	288	0
BRK	58	288	7
TAP	59	0	1
HLD	59	0	5	288
TAP	59	96	2
TAP	59	192	3
TAP	59	288	4
TAP	60	0	2
HLD	60	0	6	288
TAP	60	96	1
TAP	60	192	0
TAP	60	288	7
STR	61	0	1
SCR	61	0	1	96	192	4
HLD	61	0	5	288
HLD	62	0	2	288
STR	62	0	6
SCL	62	0	6	96	192	3
TAP	63	0	0
TAP	63	96	4
TAP	63	96	5
TAP	63	192	0
TAP	63	288	4
TAP	63	288	5
TAP	64	0	7
TAP	64	96	2
TAP	64	96	3
TAP	64	192	7
TAP	64	288	2
TAP	64	288	3
TAP	65	0	4
TAP	65	96	5
TAP	65	192	6
TAP	65	288	7
STR	66	0	0
SI_	66	0	0	96	48	3
HLD	66	192	4	96
BRK	66	288	1
TAP	67	0	1
TAP	67	0	6
TAP	67	96	2
TAP	67	192	5
TAP	67	288	3
TAP	67	288	4
TAP	68	0	2
TAP	68	0	5
TAP	68	96	6
TAP	68	192	1
TAP	68	288	0
TAP	68	288	7
STR	69	0	0
SCR	69	0	0	96	192	4
HLD	69	0	6	288
HLD	70	0	2	288
STR	70	0	7
SCL	70	0	7	96	192	3
TAP	71	0	0
TAP	71	0	1
TAP	71	96	4
TAP	71	96	5
TAP	71	192	0
TAP	71	192	1
TAP	71	288	4
TAP	71	288	5
TAP	72	0	6
TAP	72	0	7
TAP	72	96	2
TAP	72	96	3
TAP	72	192	6
TAP	72	192	7
TAP	72	288	2
TAP	72	288	3
TAP	73	0	4
TAP	73	96	5
TAP	73	192	6
TAP	73	288	7
STR	74	0	0
SI_	74	0	0	96	48	3
HLD	74	192	4	96
BRK	74	288	1
TAP	75	0	4
TAP	75	96	5
TAP	75	192	6
TAP	75	288	7
STR	76	0	0
SI_	76	0	0	96	48	3
HLD	76	192	4	96
BRK	76	288	1
TAP	77	0	0
TAP	77	0	4
TAP	77	96	1
TAP	77	96	5
TAP	77	192	2
TAP	77	192	6
TAP	77	288	3
TAP	77	288	7
STR	78	0	4
SCL	78	0	4	96	96	1
BRK	78	288	1
STR	79	0	0
SI_	79	0	0	96	96	3
BRK	79	288	7
STR	80	0	1
SI_	80	0	1	96	96	5
BRK	80	288	0
TAP	81	0	6
TAP	81	96	5
TAP	81	192	4
TAP	81	288	3
TAP	82	0	5
TAP	82	96	4
TAP	82	192	5
BRK	82	288	0
STR	83	0	0
SI_	83	0	0	96	48	4
STR	83	192	4
SI_	83	192	4	96	48	1
STR	84	0	1
SI_	84	0	1	96	48	6
STR	84	192	6
SI_	84	192	6	96	48	3
STR	85	0	3
SI_	85	0	3	96	48	7
TAP	85	192	0
TAP	85	192	7
STR	85	288	0
SCR	85	288	0	96	672	3
STR	85	288	7
SCL	85	288	7	96	672	4

T_REC_TAP	225
T_REC_BRK	14
T_REC_XTP	0
T_REC_HLD	31
T_REC_XHO	0
T_REC_STR	31
T_REC_BST	0
T_REC_XST	0
T_REC_TTP	0
T_REC_THO	0
T_REC_SLD	31
T_REC_ALL	332
T_NUM_TAP	256
T_NUM_BRK	14
T_NUM_HLD	31
T_NUM_SLD	31
T_NUM_ALL	332
T_JUDGE_TAP	270
T_JUDGE_HLD	234
T_JUDGE_SLD	31
T_JUDGE_ALL	535
TTM_EACHPAIRS	49
TTM_SCR_TAP	128000
TTM_SCR_BRK	36400
TTM_SCR_HLD	31000
TTM_SCR_SLD	46500
TTM_SCR_ALL	241900
TTM_SCR_S	233300
TTM_SCR_SS	240500
TTM_RAT_ACV	10058

