VERSION	0.00.00	1.03.00
FES_MODE	0
BPM_DEF	150.000	150.000	150.000	150.000
MET_DEF	4	4
RESOLUTION	384
CLK_DEF	384
COMPATIBLE_CODE	MA2

BPM	0	0	150.000
MET	0	0	4	4

HLD	1	0	4	768
HLD	1	0	5	768
HLD	5	0	2	768
HLD	5	0	3	768
TAP	9	0	3
TAP	9	96	3
TAP	9	192	3
TAP	9	288	3
TAP	10	0	3
TAP	10	96	3
TAP	10	192	3
TAP	10	288	3
TAP	11	0	4
TAP	11	96	4
TAP	11	192	4
TAP	11	288	4
TAP	12	0	4
TAP	12	96	4
TAP	12	192	4
TAP	12	288	4
TAP	13	0	3
TAP	13	96	3
TAP	13	192	3
TAP	13	288	3
TAP	14	0	4
TAP	14	96	4
TAP	14	192	4
TAP	14	288	4
TAP	15	0	3
TAP	15	96	3
TAP	15	192	4
TAP	15	288	4
TAP	16	0	3
TAP	16	96	4
TAP	16	192	3
TAP	16	288	4
HLD	17	0	3	576
HLD	17	0	4	576
STR	19	0	0
SI_	19	0	0	96	96	4
STR	20	0	7
SI_	20	0	7	96	96	3
TAP	21	0	3
TAP	21	0	5
TAP	21	192	2
TAP	21	192	4
TAP	22	0	0
TAP	22	0	1
TAP	22	96	0
TAP	22	96	7
TAP	22	192	6
TAP	22	192	7
STR	23	0	3
SI_	23	0	3	96	96	7
STR	24	0	4
SI_	24	0	4	96	96	0
TAP	25	0	6
TAP	25	0	7
TAP	25	192	0
TAP	25	192	1
TAP	26	0	0
TAP	26	96	7
TAP	26	192	6
BRK	26	288	0
TAP	26	288	5
HLD	27	0	4	288
TAP	27	288	0
TAP	28	0	3
TAP	28	96	3
TAP	28	96	5
TAP	28	192	3
TAP	28	288	3
TAP	28	288	5
TAP	29	0	3
TAP	29	96	3
TAP	29	96	5
TAP	29	192	3
TAP	29	288	0
STR	30	0	1
SCR	30	0	1	96	96	4
TAP	31	0	3
TAP	31	96	3
TAP	31	96	5
TAP	31	192	3
TAP	31	288	0
TAP	32	0	3
TAP	32	96	3
TAP	32	96	5
TAP	32	192	3
TAP	32	288	3
TAP	32	288	5
TAP	33	0	3
TAP	33	96	3
TAP	33	96	5
TAP	33	192	3
TAP	33	288	0
STR	34	0	1
SCR	34	0	1	96	96	4
TAP	35	96	0
TAP	35	96	1
TAP	35	288	6
TAP	35	288	7
TAP	36	96	0
TAP	36	96	1
TAP	36	288	6
TAP	36	288	7
TAP	37	96	2
TAP	37	96	3
TAP	37	288	4
TAP	37	288	5
TAP	38	96	2
TAP	38	192	3
TAP	38	288	4
TAP	38	288	5
TAP	39	96	1
TAP	39	96	7
TAP	39	288	0
TAP	39	288	6
TAP	40	96	1
TAP	40	96	7
TAP	40	288	0
TAP	40	288	6
TAP	41	96	4
TAP	41	96	5
TAP	41	288	2
TAP	41	288	3
TAP	42	0	2
TAP	42	96	3
TAP	42	192	4
BRK	42	288	5
TAP	43	0	6
TAP	43	96	7
TAP	43	192	0
TAP	43	288	0
TAP	43	288	1
TAP	44	0	1
TAP	44	96	0
TAP	44	192	7
TAP	44	288	6
TAP	44	288	7
HLD	45	0	0	384
HLD	45	0	7	384
TAP	47	0	2
TAP	47	96	3
TAP	47	192	4
TAP	47	288	3
TAP	47	288	5
TAP	48	0	5
TAP	48	96	4
TAP	48	192	3
TAP	48	288	2
TAP	48	288	4
HLD	49	0	2	96
HLD	49	0	3	96
HLD	49	192	4	96
HLD	49	192	5	96
HLD	50	0	2	192
HLD	50	0	5	192
TAP	51	0	2
TAP	51	96	1
TAP	51	192	0
TAP	51	288	6
TAP	51	288	7
TAP	52	0	5
TAP	52	96	6
TAP	52	192	7
TAP	52	288	0
TAP	52	288	1
HLD	53	0	1	384
HLD	53	0	6	384
TAP	55	0	1
TAP	55	96	2
TAP	55	192	3
TAP	55	288	4
TAP	55	288	6
TAP	56	0	6
TAP	56	96	5
TAP	56	192	4
TAP	56	288	1
TAP	56	288	3
HLD	57	0	2	384
HLD	57	0	5	384
STR	59	0	0
SI_	59	0	0	96	96	4
STR	60	0	7
SI_	60	0	7	96	96	3
TAP	61	0	4
TAP	61	0	5
TAP	61	96	4
TAP	61	96	5
TAP	61	192	2
TAP	61	192	3
TAP	61	288	2
TAP	61	288	3
TAP	62	0	0
TAP	62	0	1
TAP	62	96	0
TAP	62	96	7
TAP	62	192	6
TAP	62	192	7
STR	63	0	3
SI_	63	0	3	96	96	7
STR	64	0	4
SI_	64	0	4	96	96	0
TAP	65	0	6
TAP	65	0	7
TAP	65	96	6
TAP	65	96	7
TAP	65	192	0
TAP	65	192	1
TAP	65	288	0
TAP	65	288	1
TAP	66	0	0
TAP	66	96	7
TAP	66	192	6
BRK	66	288	0
TAP	66	288	5
STR	67	0	0
SI_	67	0	0	96	96	4
STR	68	0	7
SI_	68	0	7	96	96	3
TAP	69	0	3
TAP	69	0	5
TAP	69	96	3
TAP	69	96	5
TAP	69	192	2
TAP	69	192	4
TAP	69	288	2
TAP	69	288	4
TAP	70	0	0
TAP	70	0	1
TAP	70	96	0
TAP	70	96	7
TAP	70	192	6
TAP	70	192	7
STR	71	0	3
SI_	71	0	3	96	96	7
STR	72	0	4
SI_	72	0	4	96	96	0
TAP	73	0	6
TAP	73	0	7
TAP	73	96	6
TAP	73	96	7
TAP	73	192	0
TAP	73	192	1
TAP	73	288	0
TAP	73	288	1
TAP	74	0	0
TAP	74	96	7
TAP	74	192	6
BRK	74	288	0
TAP	74	288	5
TAP	75	0	6
TAP	75	0	7
TAP	75	96	6
TAP	75	96	7
TAP	75	192	0
TAP	75	192	1
TAP	75	288	0
TAP	75	288	1
TAP	76	0	0
TAP	76	96	7
TAP	76	192	6
BRK	76	288	0
TAP	76	288	5
TAP	77	0	6
TAP	77	0	7
TAP	77	192	0
TAP	77	192	1
HLD	78	0	3	288
HLD	78	0	4	288
HLD	79	0	2	288
HLD	79	0	5	288
HLD	80	0	1	288
HLD	80	0	6	288
TAP	81	0	3
TAP	81	96	3
TAP	81	96	5
TAP	81	192	3
TAP	81	288	3
TAP	81	288	5
TAP	82	0	3
TAP	82	96	3
TAP	82	96	5
TAP	82	192	3
TAP	82	288	0
TAP	83	0	3
TAP	83	96	3
TAP	83	192	2
TAP	83	288	0
TAP	83	288	4
TAP	84	0	5
TAP	84	96	5
TAP	84	192	6
TAP	84	288	0
TAP	84	288	4
TAP	85	0	3
TAP	85	96	3
TAP	85	192	4
TAP	85	288	4
HLD	86	0	2	768
HLD	86	0	5	768

T_REC_TAP	242
T_REC_BRK	5
T_REC_XTP	0
T_REC_HLD	27
T_REC_XHO	0
T_REC_STR	14
T_REC_BST	0
T_REC_XST	0
T_REC_TTP	0
T_REC_THO	0
T_REC_SLD	14
T_REC_ALL	302
T_NUM_TAP	256
T_NUM_BRK	5
T_NUM_HLD	27
T_NUM_SLD	14
T_NUM_ALL	302
T_JUDGE_TAP	261
T_JUDGE_HLD	226
T_JUDGE_SLD	14
T_JUDGE_ALL	501
TTM_EACHPAIRS	85
TTM_SCR_TAP	128000
TTM_SCR_BRK	13000
TTM_SCR_HLD	27000
TTM_SCR_SLD	21000
TTM_SCR_ALL	189000
TTM_SCR_S	182850
TTM_SCR_SS	188500
TTM_RAT_ACV	10026

