VERSION	0.00.00	1.03.00
FES_MODE	0
BPM_DEF	135.000	135.000	135.000	135.000
MET_DEF	4	4
RESOLUTION	384
CLK_DEF	384
COMPATIBLE_CODE	MA2

BPM	0	0	135.000
MET	0	0	4	4

TAP	1	228	0
TAP	1	252	1
TAP	1	276	2
TAP	1	306	3
TAP	1	336	4
TAP	1	366	5
TAP	2	12	6
TAP	2	36	7
TAP	2	66	0
TAP	2	96	1
TAP	2	132	2
TAP	2	162	3
TAP	2	192	4
TAP	2	228	5
TAP	2	264	6
TAP	2	300	7
TAP	2	342	0
TAP	3	0	1
TAP	3	42	2
TAP	3	90	3
TAP	3	138	4
TAP	3	204	5
TAP	3	318	7
HLD	4	0	0	288
STR	4	96	7
SV_	4	96	7	96	96	1
HLD	5	0	3	288
STR	5	96	2
SV_	5	96	2	96	96	4
HLD	6	0	4	288
STR	6	96	5
SV_	6	96	5	96	96	3
HLD	7	0	7	192
STR	7	96	0
SV_	7	96	0	96	96	6
BRK	7	288	7
TAP	8	0	5
TAP	8	48	5
TAP	8	96	2
TAP	8	120	3
HLD	8	168	1	96
TAP	8	264	2
TAP	8	312	2
TAP	8	336	3
TAP	9	0	5
TAP	9	48	5
TAP	9	96	2
TAP	9	120	3
HLD	9	168	2	96
TAP	9	264	1
TAP	9	312	1
TAP	9	336	0
TAP	10	0	2
TAP	10	48	2
TAP	10	96	5
TAP	10	120	4
HLD	10	168	6	96
TAP	10	264	5
TAP	10	312	5
TAP	10	336	4
TAP	11	0	2
TAP	11	48	2
TAP	11	96	5
TAP	11	120	4
HLD	11	168	6	72
TAP	11	168	7
HLD	11	240	5	72
TAP	11	312	4
TAP	12	0	1
TAP	12	48	2
TAP	12	96	5
TAP	12	120	4
HLD	12	168	6	96
TAP	12	264	5
TAP	12	312	5
TAP	12	336	4
TAP	13	0	1
TAP	13	48	2
TAP	13	96	5
TAP	13	120	4
HLD	13	168	5	96
TAP	13	264	7
TAP	13	312	7
TAP	13	336	6
TAP	14	0	6
TAP	14	48	5
TAP	14	96	2
TAP	14	120	3
HLD	14	168	6	96
TAP	14	264	2
TAP	14	312	2
TAP	14	336	3
TAP	15	0	6
TAP	15	48	5
TAP	15	96	2
TAP	15	120	3
STR	15	168	1
SUR	15	168	1	96	72	2
TAP	16	0	6
TAP	16	48	7
TAP	16	96	0
HLD	16	173	2	67
HLD	16	173	3	163
TAP	16	288	2
TAP	16	336	2
TAP	17	0	1
TAP	17	48	0
TAP	17	96	7
HLD	17	173	4	163
HLD	17	173	5	67
TAP	17	288	5
TAP	17	336	5
TAP	18	0	6
TAP	18	48	7
TAP	18	96	0
HLD	18	173	2	163
HLD	18	173	3	67
TAP	18	288	3
TAP	18	336	3
TAP	19	0	1
TAP	19	48	0
TAP	19	96	7
TAP	19	173	4
HLD	19	173	5	67
HLD	19	240	4	77
TAP	19	317	6
TAP	20	0	4
TAP	20	48	3
TAP	20	96	2
HLD	20	173	0	67
HLD	20	173	1	163
TAP	20	288	2
TAP	20	336	0
TAP	21	0	3
TAP	21	48	4
TAP	21	96	5
HLD	21	173	6	163
HLD	21	173	7	67
TAP	21	288	5
TAP	21	336	7
TAP	22	0	4
TAP	22	48	3
TAP	22	96	2
HLD	22	173	0	67
HLD	22	173	1	163
TAP	22	288	2
TAP	22	336	0
TAP	23	0	3
TAP	23	48	4
TAP	23	96	5
STR	23	173	6
SUL	23	173	6	96	67	5
TAP	24	0	1
TAP	24	0	7
TAP	24	48	0
TAP	24	96	2
TAP	24	144	5
TAP	24	173	4
TAP	24	221	4
TAP	24	240	5
TAP	24	288	3
TAP	24	288	6
TAP	24	336	4
TAP	25	0	0
TAP	25	0	6
TAP	25	48	7
TAP	25	96	5
TAP	25	144	2
TAP	25	173	3
TAP	25	221	3
TAP	25	240	2
TAP	25	288	1
TAP	25	288	4
TAP	25	336	3
TAP	26	0	1
TAP	26	0	7
TAP	26	48	0
TAP	26	96	2
TAP	26	144	5
TAP	26	173	4
TAP	26	221	4
TAP	26	240	5
TAP	26	288	3
TAP	26	288	6
TAP	26	336	4
TAP	27	0	0
TAP	27	0	6
TAP	27	48	7
TAP	27	96	5
TAP	27	144	2
TAP	27	173	3
TAP	27	221	3
TAP	27	240	2
TAP	27	288	1
TAP	27	288	4
BRK	27	336	1
BRK	27	336	4
TAP	28	0	3
TAP	28	0	5
TAP	28	48	4
TAP	28	96	6
TAP	28	144	1
TAP	28	173	0
TAP	28	221	0
TAP	28	240	1
TAP	28	288	2
TAP	28	288	7
TAP	28	336	0
TAP	29	0	2
TAP	29	0	4
TAP	29	48	3
TAP	29	96	1
TAP	29	144	6
TAP	29	173	7
TAP	29	221	7
TAP	29	240	6
TAP	29	288	0
TAP	29	288	5
TAP	29	336	7
TAP	30	0	3
TAP	30	0	5
TAP	30	48	4
TAP	30	96	6
TAP	30	144	1
TAP	30	173	0
TAP	30	221	0
TAP	30	240	1
TAP	30	288	2
TAP	30	288	7
TAP	30	336	0
TAP	31	0	2
TAP	31	0	4
TAP	31	48	3
TAP	31	96	1
TAP	31	144	6
TAP	31	173	7
TAP	31	221	7
TAP	31	240	6
BRK	31	288	0
BRK	31	288	5
TAP	32	29	1
TAP	32	48	0
TAP	32	77	2
TAP	32	96	7
TAP	32	144	5
STR	32	173	4
SI_	32	173	4	96	48	1
TAP	32	221	4
TAP	32	240	5
TAP	33	29	6
TAP	33	48	7
TAP	33	77	5
TAP	33	96	0
TAP	33	144	2
STR	33	173	3
SI_	33	173	3	96	48	6
TAP	33	221	3
TAP	33	240	2
TAP	34	29	1
TAP	34	48	0
TAP	34	77	2
TAP	34	96	7
TAP	34	144	5
STR	34	173	4
SI_	34	173	4	96	48	1
TAP	34	221	4
TAP	34	240	5
TAP	35	29	6
TAP	35	48	7
TAP	35	77	5
TAP	35	96	0
TAP	35	144	2
STR	35	173	3
SUR	35	173	3	96	67	6
TAP	35	221	3
TAP	35	240	2
TAP	36	29	0
TAP	36	48	7
TAP	36	77	1
TAP	36	96	6
TAP	36	144	3
STR	36	173	4
SUR	36	173	4	96	67	3
TAP	36	221	4
TAP	36	240	3
TAP	37	29	4
TAP	37	48	3
TAP	37	77	5
TAP	37	96	2
TAP	37	144	7
STR	37	173	0
SUR	37	173	0	96	67	7
TAP	37	221	0
TAP	37	240	7
TAP	38	29	6
TAP	38	48	5
TAP	38	77	7
TAP	38	96	4
TAP	38	144	1
STR	38	173	2
SUR	38	173	2	96	67	1
TAP	38	221	2
TAP	38	240	1
TAP	39	29	1
TAP	39	48	2
TAP	39	77	0
TAP	39	96	3
HLD	39	173	6	67
TAP	39	240	5
STR	39	288	1
SCR	39	288	1	96	48	3
STR	39	288	7
SCL	39	288	7	96	48	5
STR	40	0	1
SV_	40	0	1	96	48	4
STR	40	0	7
SV_	40	0	7	96	48	4
STR	40	96	1
SCR	40	96	1	96	48	3
STR	40	96	7
SCL	40	96	7	96	48	5
HLD	40	336	4	96
HLD	41	48	3	96
TAP	41	144	2
TAP	41	240	7
STR	41	288	0
SCR	41	288	0	96	48	2
STR	41	288	6
SCL	41	288	6	96	48	4
STR	42	0	0
SV_	42	0	0	96	48	3
STR	42	0	6
SV_	42	0	6	96	48	3
STR	42	96	0
SCR	42	96	0	96	48	2
STR	42	96	6
SCL	42	96	6	96	48	4
HLD	42	336	3	96
HLD	43	48	4	96
TAP	43	144	5
TAP	43	240	0
STR	43	288	1
SCR	43	288	1	96	48	3
STR	43	288	7
SCL	43	288	7	96	48	5
STR	44	0	1
SV_	44	0	1	96	48	0
STR	44	0	7
SV_	44	0	7	96	48	4
STR	44	96	1
SCR	44	96	1	96	48	3
STR	44	96	7
SCL	44	96	7	96	48	5
HLD	44	336	4	96
HLD	45	48	3	96
TAP	45	144	2
TAP	45	240	7
STR	45	288	0
SCR	45	288	0	96	48	2
STR	45	288	6
SCL	45	288	6	96	48	4
STR	46	0	0
SV_	46	0	0	96	48	7
STR	46	0	6
SV_	46	0	6	96	48	3
STR	46	96	0
SCR	46	96	0	96	48	2
STR	46	96	6
SCL	46	96	6	96	48	4
HLD	46	336	3	96
HLD	47	48	4	96
HLD	47	144	5	96
TAP	47	240	6
BRK	47	288	7
TAP	48	0	0
TAP	48	0	6
TAP	48	48	4
TAP	48	48	6
STR	48	96	2
SUR	48	96	2	96	48	7
TAP	48	96	4
HLD	48	264	1	72
TAP	48	336	0
TAP	49	0	1
TAP	49	0	7
TAP	49	48	1
TAP	49	48	3
TAP	49	96	3
STR	49	96	5
SUL	49	96	5	96	48	0
HLD	49	264	6	72
TAP	49	336	7
TAP	50	0	0
TAP	50	0	6
TAP	50	48	4
TAP	50	48	6
STR	50	96	2
SUR	50	96	2	96	48	7
TAP	50	96	4
HLD	50	264	1	72
TAP	50	336	0
TAP	51	0	1
TAP	51	0	7
TAP	51	48	1
TAP	51	48	3
TAP	51	96	3
HLD	51	96	5	72
HLD	51	168	7	72
HLD	51	240	6	72
TAP	51	312	5
TAP	52	0	2
TAP	52	0	4
TAP	52	48	0
TAP	52	48	2
TAP	52	96	0
STR	52	96	6
SUR	52	96	6	96	48	3
HLD	52	264	5	72
TAP	52	336	4
TAP	53	0	3
TAP	53	0	5
TAP	53	48	5
TAP	53	48	7
STR	53	96	1
SUL	53	96	1	96	48	4
TAP	53	96	7
HLD	53	264	2	72
TAP	53	336	3
TAP	54	0	2
TAP	54	0	4
TAP	54	48	0
TAP	54	48	2
TAP	54	96	0
STR	54	96	6
SUR	54	96	6	96	48	3
HLD	54	264	5	72
TAP	54	336	4
TAP	55	0	3
TAP	55	0	5
TAP	55	48	5
TAP	55	48	7
HLD	55	96	1	72
TAP	55	96	7
HLD	55	168	2	120
TAP	55	288	0
TAP	56	0	7
TAP	56	24	6
TAP	56	48	5
TAP	56	78	4
TAP	56	108	3
TAP	56	138	2
TAP	56	168	1
TAP	56	192	0
TAP	56	222	7
TAP	56	252	6
TAP	56	288	5
TAP	56	318	4
TAP	56	348	3
TAP	57	0	2
TAP	57	36	1
TAP	57	72	0
TAP	57	114	7
TAP	57	156	6
TAP	57	198	5
TAP	57	258	4
TAP	57	330	3
TAP	58	90	2
TAP	58	234	1
BRK	59	102	0
BRK	59	144	0

T_REC_TAP	329
T_REC_BRK	8
T_REC_XTP	0
T_REC_HLD	47
T_REC_XHO	0
T_REC_STR	43
T_REC_BST	0
T_REC_XST	0
T_REC_TTP	0
T_REC_THO	0
T_REC_SLD	43
T_REC_ALL	470
T_NUM_TAP	372
T_NUM_BRK	8
T_NUM_HLD	47
T_NUM_SLD	43
T_NUM_ALL	470
T_JUDGE_TAP	380
T_JUDGE_HLD	121
T_JUDGE_SLD	43
T_JUDGE_ALL	544
TTM_EACHPAIRS	61
TTM_SCR_TAP	186000
TTM_SCR_BRK	20800
TTM_SCR_HLD	47000
TTM_SCR_SLD	64500
TTM_SCR_ALL	318300
TTM_SCR_S	308000
TTM_SCR_SS	317500
TTM_RAT_ACV	10025

