VERSION	0.00.00	1.03.00
FES_MODE	0
BPM_DEF	135.000	135.000	135.000	135.000
MET_DEF	4	4
RESOLUTION	384
CLK_DEF	384
COMPATIBLE_CODE	MA2

BPM	0	0	135.000
MET	0	0	4	4

STR	1	192	1
SCL	1	192	1	96	672	5
STR	1	192	6
SCR	1	192	6	96	672	2
HLD	4	0	0	288
TAP	4	96	1
TAP	4	288	1
HLD	5	0	7	288
TAP	5	96	6
TAP	5	288	6
HLD	6	0	1	288
TAP	6	96	2
TAP	6	288	3
HLD	7	0	6	288
TAP	7	96	5
TAP	7	288	4
HLD	8	0	2	288
BRK	8	0	3
TAP	8	96	3
TAP	8	168	3
TAP	8	288	3
HLD	9	0	5	288
TAP	9	96	4
TAP	9	168	4
TAP	9	288	4
HLD	10	0	1	288
TAP	10	96	0
TAP	10	168	0
TAP	10	288	0
HLD	11	0	6	288
TAP	11	96	7
TAP	11	168	7
TAP	11	288	7
TAP	12	0	0
TAP	12	96	1
TAP	12	168	1
TAP	12	288	2
TAP	13	0	7
TAP	13	96	6
TAP	13	168	6
TAP	13	288	5
TAP	14	0	2
TAP	14	0	3
TAP	14	96	2
TAP	14	96	3
TAP	14	168	2
TAP	14	168	3
TAP	14	288	1
TAP	14	288	4
TAP	15	0	4
TAP	15	0	5
TAP	15	96	4
TAP	15	96	5
TAP	15	168	4
TAP	15	168	5
BRK	15	288	3
BRK	15	288	6
HLD	16	0	2	96
HLD	16	96	1	72
STR	16	168	0
SI_	16	168	0	96	24	4
HLD	17	0	5	96
HLD	17	96	6	72
STR	17	168	7
SI_	17	168	7	96	24	3
HLD	18	0	0	96
HLD	18	96	1	72
STR	18	168	2
SI_	18	168	2	96	24	7
HLD	19	0	7	96
HLD	19	96	6	72
STR	19	168	5
SI_	19	168	5	96	24	0
HLD	20	0	0	96
HLD	20	96	2	72
STR	20	168	4
SV_	20	168	4	96	48	6
HLD	21	0	7	96
HLD	21	96	5	72
STR	21	168	3
SV_	21	168	3	96	48	1
HLD	22	0	4	96
HLD	22	96	6	72
STR	22	168	0
SV_	22	168	0	96	48	2
TAP	23	0	3
TAP	23	96	1
TAP	23	168	7
TAP	23	240	0
BRK	23	288	0
TAP	24	0	0
TAP	24	96	1
HLD	24	168	2	120
TAP	24	240	3
TAP	24	288	3
TAP	25	0	7
TAP	25	96	6
HLD	25	168	5	120
TAP	25	240	4
TAP	25	288	4
TAP	26	0	2
TAP	26	96	1
HLD	26	168	0	120
TAP	26	240	7
TAP	26	288	7
TAP	27	0	5
TAP	27	96	6
HLD	27	168	7	72
TAP	27	240	0
TAP	27	288	1
TAP	27	288	6
HLD	28	0	1	96
HLD	28	96	2	72
HLD	28	168	3	120
TAP	28	240	4
TAP	28	288	4
HLD	29	0	6	96
HLD	29	96	5	72
HLD	29	168	4	120
TAP	29	240	3
TAP	29	288	3
HLD	30	0	2	96
HLD	30	96	1	72
HLD	30	168	0	120
TAP	30	240	7
TAP	30	288	7
HLD	31	0	5	96
HLD	31	96	6	72
HLD	31	168	7	72
TAP	31	240	0
TAP	31	288	1
TAP	31	288	6
TAP	32	0	2
TAP	32	48	2
TAP	32	72	3
TAP	32	96	2
TAP	32	168	7
TAP	32	240	7
BRK	32	288	0
TAP	33	0	5
TAP	33	48	5
TAP	33	72	4
TAP	33	96	5
TAP	33	168	0
TAP	33	240	0
BRK	33	288	7
TAP	34	0	1
TAP	34	48	2
TAP	34	72	3
TAP	34	96	2
TAP	34	168	6
TAP	34	240	7
BRK	34	288	0
TAP	35	0	6
TAP	35	48	5
TAP	35	72	4
TAP	35	96	5
TAP	35	168	0
TAP	35	168	7
TAP	35	240	1
TAP	35	240	6
TAP	35	312	2
TAP	35	312	5
TAP	36	0	1
TAP	36	48	1
TAP	36	72	0
TAP	36	96	1
TAP	36	168	7
TAP	36	240	6
BRK	36	288	5
TAP	37	0	6
TAP	37	48	6
TAP	37	72	7
TAP	37	96	6
TAP	37	168	0
TAP	37	240	1
BRK	37	288	2
TAP	38	0	2
TAP	38	48	0
TAP	38	72	7
TAP	38	96	1
TAP	38	168	5
TAP	38	240	6
BRK	38	288	7
TAP	39	0	5
TAP	39	48	7
TAP	39	72	0
TAP	39	96	6
TAP	39	168	2
TAP	39	168	5
TAP	39	240	1
TAP	39	240	6
TAP	39	312	0
TAP	39	312	7
TAP	40	0	3
TAP	40	0	4
BRK	40	96	0
TAP	40	192	3
TAP	40	192	4
BRK	40	288	7
HLD	40	336	0	96
HLD	41	48	1	96
HLD	41	144	2	144
TAP	41	240	3
TAP	41	288	3
TAP	42	0	3
TAP	42	0	4
BRK	42	96	7
TAP	42	192	3
TAP	42	192	4
BRK	42	288	0
HLD	42	336	7	96
HLD	43	48	6	96
HLD	43	144	5	144
TAP	43	240	4
TAP	43	288	4
TAP	44	0	2
TAP	44	0	4
BRK	44	96	7
TAP	44	192	3
TAP	44	192	5
BRK	44	288	0
HLD	44	336	7	96
HLD	45	48	5	96
HLD	45	144	3	144
TAP	45	240	1
TAP	45	288	1
TAP	46	0	3
TAP	46	0	5
BRK	46	96	0
TAP	46	192	2
TAP	46	192	4
BRK	46	288	7
HLD	46	336	0	96
HLD	47	48	2	96
HLD	47	144	4	144
TAP	47	240	6
TAP	47	288	6
STR	48	0	7
SUL	48	0	7	96	48	1
STR	48	192	1
SI_	48	192	1	96	48	6
STR	49	0	3
SUL	49	0	3	96	48	5
STR	49	192	5
SI_	49	192	5	96	48	2
STR	50	0	6
SI_	50	0	6	96	48	4
STR	50	192	0
SI_	50	192	0	96	48	2
STR	51	0	3
SI_	51	0	3	96	48	7
STR	51	192	0
SI_	51	192	0	96	48	3
STR	51	192	6
SI_	51	192	6	96	48	3
TAP	52	0	0
TAP	52	48	5
TAP	52	96	2
HLD	52	168	7	96
HLD	52	264	0	72
TAP	52	336	1
TAP	53	0	7
TAP	53	48	2
TAP	53	96	5
HLD	53	168	0	96
HLD	53	264	7	72
TAP	53	336	6
TAP	54	0	0
TAP	54	48	1
TAP	54	96	2
HLD	54	168	5	96
HLD	54	264	7	72
TAP	54	336	6
TAP	55	0	7
TAP	55	48	6
TAP	55	96	5
HLD	55	168	2	96
HLD	55	264	0	72
TAP	55	336	1
STR	56	0	1
SCL	56	0	1	96	960	2
BRK	59	96	7
BRK	59	160	7

T_REC_TAP	168
T_REC_BRK	20
T_REC_XTP	0
T_REC_HLD	58
T_REC_XHO	0
T_REC_STR	19
T_REC_BST	0
T_REC_XST	0
T_REC_TTP	0
T_REC_THO	0
T_REC_SLD	19
T_REC_ALL	284
T_NUM_TAP	187
T_NUM_BRK	20
T_NUM_HLD	58
T_NUM_SLD	19
T_NUM_ALL	284
T_JUDGE_TAP	207
T_JUDGE_HLD	158
T_JUDGE_SLD	19
T_JUDGE_ALL	384
TTM_EACHPAIRS	27
TTM_SCR_TAP	93500
TTM_SCR_BRK	52000
TTM_SCR_HLD	58000
TTM_SCR_SLD	28500
TTM_SCR_ALL	232000
TTM_SCR_S	223100
TTM_SCR_SS	230000
TTM_RAT_ACV	10086

