VERSION	0.00.00	1.03.00
FES_MODE	0
BPM_DEF	135.000	135.000	135.000	135.000
MET_DEF	4	4
RESOLUTION	384
CLK_DEF	384
COMPATIBLE_CODE	MA2

BPM	0	0	135.000
MET	0	0	4	4

TAP	4	0	3
TAP	4	96	4
TAP	4	192	5
TAP	4	288	6
TAP	4	288	7
TAP	5	0	4
TAP	5	96	3
TAP	5	192	2
TAP	5	288	0
TAP	5	288	1
TAP	6	0	6
TAP	6	96	5
TAP	6	192	4
TAP	6	288	3
TAP	7	0	2
TAP	7	96	1
BRK	7	192	0
BRK	7	192	7
TAP	8	0	6
TAP	8	96	5
TAP	8	192	4
TAP	8	288	2
TAP	8	288	3
TAP	9	0	1
TAP	9	96	2
TAP	9	192	3
TAP	9	288	4
TAP	9	288	5
TAP	10	0	2
TAP	10	96	1
TAP	10	192	0
TAP	10	288	6
TAP	10	288	7
TAP	11	0	5
TAP	11	96	6
TAP	11	192	7
TAP	11	288	0
TAP	11	288	1
TAP	12	0	3
TAP	12	96	2
TAP	12	192	1
TAP	12	288	0
TAP	12	288	7
TAP	13	0	4
TAP	13	96	5
TAP	13	192	6
TAP	13	288	0
TAP	13	288	7
TAP	14	0	2
TAP	14	96	4
TAP	14	192	6
TAP	14	288	0
TAP	14	288	7
TAP	15	0	5
TAP	15	96	3
TAP	15	192	1
TAP	15	288	0
TAP	15	288	7
TAP	16	0	6
STR	16	96	6
SI_	16	96	6	96	96	3
TAP	17	0	0
STR	17	96	0
SI_	17	96	0	96	96	3
TAP	18	0	7
STR	18	96	7
SI_	18	96	7	96	96	3
TAP	19	0	3
TAP	19	96	2
TAP	19	192	1
TAP	19	288	0
TAP	19	288	7
TAP	20	0	1
STR	20	96	1
SI_	20	96	1	96	96	4
TAP	21	0	7
STR	21	96	7
SI_	21	96	7	96	96	4
TAP	22	0	0
STR	22	96	0
SI_	22	96	0	96	96	4
TAP	23	0	4
TAP	23	96	5
TAP	23	192	6
TAP	23	288	0
TAP	23	288	7
TAP	24	0	1
TAP	24	48	1
TAP	24	96	1
TAP	24	192	2
TAP	24	192	3
TAP	24	288	4
TAP	24	288	5
TAP	25	0	6
TAP	25	48	6
TAP	25	96	6
TAP	25	192	4
TAP	25	192	5
TAP	25	288	2
TAP	25	288	3
TAP	26	0	1
TAP	26	48	1
TAP	26	96	1
TAP	26	192	0
TAP	26	192	7
TAP	26	288	3
TAP	26	288	4
TAP	27	0	2
TAP	27	48	2
TAP	27	96	4
TAP	27	192	5
TAP	27	240	5
TAP	27	288	3
TAP	28	0	6
TAP	28	48	6
TAP	28	96	6
TAP	28	192	4
TAP	28	192	5
TAP	28	288	2
TAP	28	288	3
TAP	29	0	1
TAP	29	48	1
TAP	29	96	1
TAP	29	192	2
TAP	29	192	3
TAP	29	288	4
TAP	29	288	5
TAP	30	0	6
TAP	30	48	6
TAP	30	96	6
TAP	30	192	0
TAP	30	192	7
TAP	30	288	3
TAP	30	288	4
TAP	31	0	5
TAP	31	48	5
TAP	31	96	0
TAP	31	192	2
TAP	31	240	2
TAP	31	288	7
TAP	32	0	2
TAP	32	48	3
TAP	32	96	4
TAP	32	192	6
TAP	32	192	7
TAP	32	288	0
TAP	32	288	1
TAP	33	0	5
TAP	33	48	4
TAP	33	96	3
TAP	33	192	0
TAP	33	192	1
TAP	33	288	6
TAP	33	288	7
TAP	34	0	3
TAP	34	48	4
TAP	34	96	5
TAP	34	192	0
TAP	34	192	7
TAP	34	288	2
TAP	34	288	5
TAP	35	0	4
TAP	35	48	3
TAP	35	96	2
TAP	35	192	0
TAP	35	192	7
TAP	35	288	2
TAP	35	288	5
TAP	36	0	2
TAP	36	48	3
TAP	36	96	2
TAP	36	192	0
TAP	36	192	1
TAP	36	288	6
TAP	36	288	7
TAP	37	0	5
TAP	37	48	4
TAP	37	96	5
TAP	37	192	6
TAP	37	192	7
TAP	37	288	0
TAP	37	288	1
TAP	38	0	6
TAP	38	48	7
TAP	38	96	6
TAP	38	192	4
TAP	38	192	5
TAP	38	288	2
TAP	38	288	7
TAP	39	0	1
TAP	39	48	0
TAP	39	96	1
TAP	39	192	2
TAP	39	192	3
TAP	39	288	0
TAP	39	288	5
HLD	40	0	1	96
BRK	40	96	0
HLD	40	192	6	96
BRK	40	288	7
TAP	41	0	5
TAP	41	96	4
TAP	41	96	5
TAP	41	192	2
TAP	41	288	2
TAP	41	288	3
HLD	42	0	2	96
BRK	42	96	7
HLD	42	192	5	96
BRK	42	288	0
TAP	43	0	2
TAP	43	96	2
TAP	43	96	3
TAP	43	192	5
TAP	43	288	4
TAP	43	288	5
HLD	44	0	3	96
BRK	44	96	7
HLD	44	192	4	96
BRK	44	288	0
TAP	45	0	1
TAP	45	96	1
TAP	45	96	4
TAP	45	192	6
TAP	45	288	3
TAP	45	288	6
HLD	46	0	2	96
BRK	46	96	0
HLD	46	192	5	96
BRK	46	288	7
TAP	47	0	6
TAP	47	96	3
TAP	47	96	6
TAP	47	192	1
TAP	47	288	1
TAP	47	288	4
TAP	48	0	5
TAP	48	96	6
TAP	48	192	7
TAP	48	288	0
TAP	48	288	1
TAP	49	0	2
TAP	49	96	1
TAP	49	192	0
TAP	49	288	6
TAP	49	288	7
TAP	50	0	5
TAP	50	96	3
TAP	50	192	1
TAP	50	288	0
TAP	50	288	7
TAP	51	0	2
TAP	51	96	4
TAP	51	192	6
TAP	51	288	0
TAP	51	288	7
TAP	52	0	6
TAP	52	48	5
TAP	52	96	4
TAP	52	192	2
TAP	52	192	3
TAP	52	288	0
TAP	52	288	1
TAP	53	0	1
TAP	53	48	2
TAP	53	96	3
TAP	53	192	4
TAP	53	192	5
TAP	53	288	6
TAP	53	288	7
TAP	54	0	0
TAP	54	48	1
TAP	54	96	2
TAP	54	192	3
TAP	54	192	4
TAP	54	288	1
TAP	54	288	6
TAP	55	0	7
TAP	55	48	6
TAP	55	96	5
TAP	55	192	3
TAP	55	192	4
TAP	55	288	1
TAP	55	288	6
STR	56	0	4
SCR	56	0	4	96	960	3
TAP	59	96	0
TAP	59	144	0

T_REC_TAP	256
T_REC_BRK	10
T_REC_XTP	0
T_REC_HLD	8
T_REC_XHO	0
T_REC_STR	7
T_REC_BST	0
T_REC_XST	0
T_REC_TTP	0
T_REC_THO	0
T_REC_SLD	7
T_REC_ALL	288
T_NUM_TAP	263
T_NUM_BRK	10
T_NUM_HLD	8
T_NUM_SLD	7
T_NUM_ALL	288
T_JUDGE_TAP	273
T_JUDGE_HLD	16
T_JUDGE_SLD	7
T_JUDGE_ALL	296
TTM_EACHPAIRS	61
TTM_SCR_TAP	131500
TTM_SCR_BRK	26000
TTM_SCR_HLD	8000
TTM_SCR_SLD	10500
TTM_SCR_ALL	176000
TTM_SCR_S	169750
TTM_SCR_SS	175000
TTM_RAT_ACV	10057

