VERSION	0.00.00	1.03.00
FES_MODE	0
BPM_DEF	145.000	145.000	145.000	145.000
MET_DEF	4	4
RESOLUTION	384
CLK_DEF	384
COMPATIBLE_CODE	MA2

BPM	0	0	145.000
MET	0	0	4	4

HLD	2	0	5	48
HLD	2	0	7	48
HLD	2	72	0	48
HLD	2	72	2	48
STR	2	144	4
SI_	2	144	4	96	48	7
STR	2	144	6
SI_	2	144	6	96	48	3
HLD	3	48	3	48
HLD	3	48	6	48
HLD	3	120	1	48
HLD	3	120	4	48
HLD	3	192	2	48
HLD	3	192	7	48
HLD	3	264	0	72
HLD	3	264	5	72
HLD	4	0	0	48
HLD	4	0	2	48
HLD	4	72	5	48
HLD	4	72	7	48
STR	4	144	1
SI_	4	144	1	96	48	4
STR	4	144	3
SI_	4	144	3	96	48	0
HLD	5	48	1	48
HLD	5	48	4	48
HLD	5	120	3	48
HLD	5	120	6	48
HLD	5	192	0	48
HLD	5	192	5	48
TAP	5	264	2
TAP	5	264	7
TAP	5	336	2
TAP	5	336	7
HLD	6	0	4	48
HLD	6	0	6	48
HLD	6	72	1	48
HLD	6	72	3	48
STR	6	144	5
SI_	6	144	5	96	48	0
STR	6	144	7
SI_	6	144	7	96	48	4
HLD	7	48	0	48
HLD	7	48	5	48
HLD	7	120	2	48
HLD	7	120	7	48
HLD	7	192	1	48
HLD	7	192	4	48
HLD	7	264	3	72
HLD	7	264	6	72
HLD	8	0	1	48
HLD	8	0	3	48
HLD	8	72	4	48
HLD	8	72	6	48
STR	8	144	0
SI_	8	144	0	96	48	3
STR	8	144	2
SI_	8	144	2	96	48	7
HLD	9	48	2	48
HLD	9	48	7	48
HLD	9	120	0	48
HLD	9	120	5	48
HLD	9	192	3	48
HLD	9	192	6	48
TAP	9	264	1
TAP	9	264	4
TAP	9	336	1
TAP	9	336	4
HLD	10	0	0	1056
TAP	12	0	5
TAP	12	96	5
TAP	12	192	5
TAP	12	288	5
TAP	13	0	5
TAP	13	12	4
TAP	13	24	3
TAP	13	36	2
TAP	13	48	4
TAP	13	72	3
TAP	13	96	4
TAP	13	120	3
TAP	13	144	4
TAP	13	168	3
TAP	13	192	5
TAP	13	216	4
TAP	13	240	5
TAP	13	264	3
TAP	13	288	4
TAP	13	312	2
TAP	13	336	3
TAP	13	360	2
HLD	14	0	7	72
TAP	14	72	1
TAP	14	96	1
TAP	14	120	5
HLD	14	144	0	72
TAP	14	216	6
TAP	14	240	6
TAP	14	264	2
TAP	14	288	4
TAP	14	336	3
HLD	15	0	0	72
TAP	15	72	2
TAP	15	96	2
TAP	15	120	4
HLD	15	144	7	72
TAP	15	216	5
TAP	15	240	5
TAP	15	264	3
TAP	15	288	4
TAP	15	336	2
HLD	16	0	6	72
TAP	16	72	0
TAP	16	96	0
TAP	16	120	4
HLD	16	144	1	72
TAP	16	216	7
TAP	16	240	7
TAP	16	264	3
TAP	16	288	6
TAP	16	336	1
HLD	17	0	5	72
TAP	17	72	1
TAP	17	96	1
TAP	17	120	3
HLD	17	144	2	72
TAP	17	216	6
TAP	17	240	6
TAP	17	264	4
TAP	17	288	5
TAP	17	312	3
TAP	17	336	4
HLD	18	0	0	72
TAP	18	72	6
TAP	18	96	6
TAP	18	120	2
HLD	18	144	7	72
TAP	18	216	1
TAP	18	240	1
TAP	18	264	5
TAP	18	288	3
TAP	18	336	4
HLD	19	0	7	72
TAP	19	72	5
TAP	19	96	5
TAP	19	120	3
HLD	19	144	0	72
TAP	19	216	2
TAP	19	240	2
TAP	19	264	4
TAP	19	288	3
TAP	19	336	5
HLD	20	0	1	72
TAP	20	72	7
TAP	20	96	7
TAP	20	120	3
HLD	20	144	6	72
TAP	20	216	0
TAP	20	240	0
TAP	20	264	4
TAP	20	288	1
TAP	20	336	6
HLD	21	0	2	72
TAP	21	72	6
TAP	21	96	6
TAP	21	120	4
HLD	21	144	5	72
TAP	21	216	1
TAP	21	240	1
TAP	21	264	3
TAP	21	288	2
TAP	21	312	4
TAP	21	336	3
STR	22	0	7
SCL	22	0	7	96	48	4
TAP	22	72	0
TAP	22	96	0
STR	22	144	1
SCR	22	144	1	96	48	4
TAP	22	216	0
TAP	22	240	0
TAP	22	288	7
TAP	22	336	1
STR	23	0	0
SCR	23	0	0	96	48	3
TAP	23	72	7
TAP	23	96	7
STR	23	144	6
SCL	23	144	6	96	48	3
TAP	23	216	7
TAP	23	240	7
TAP	23	288	0
TAP	23	336	6
STR	24	0	0
SCL	24	0	0	96	48	5
TAP	24	72	1
TAP	24	96	1
STR	24	144	2
SCR	24	144	2	96	48	5
TAP	24	216	1
TAP	24	240	1
TAP	24	288	0
TAP	24	336	2
STR	25	0	7
SCR	25	0	7	96	48	2
TAP	25	72	6
TAP	25	96	6
STR	25	144	5
SCL	25	144	5	96	48	2
TAP	25	216	6
TAP	25	240	6
TAP	25	288	7
TAP	25	336	5
STR	26	0	1
SCL	26	0	1	96	48	6
TAP	26	72	2
TAP	26	96	2
STR	26	144	3
SCR	26	144	3	96	48	6
TAP	26	216	2
TAP	26	240	2
TAP	26	288	1
TAP	26	336	3
STR	27	0	6
SCR	27	0	6	96	48	1
TAP	27	72	5
TAP	27	96	5
STR	27	144	4
SCL	27	144	4	96	48	1
TAP	27	216	5
TAP	27	240	5
TAP	27	288	6
TAP	27	336	4
STR	28	0	2
SCL	28	0	2	96	48	7
TAP	28	72	3
TAP	28	96	3
STR	28	144	4
SCR	28	144	4	96	48	7
TAP	28	216	3
TAP	28	240	3
TAP	28	288	2
TAP	28	336	4
STR	29	0	5
SCR	29	0	5	96	48	0
TAP	29	72	4
TAP	29	96	4
STR	29	144	3
SCL	29	144	3	96	48	0
TAP	29	216	4
TAP	29	240	4
TAP	29	288	5
TAP	29	336	3
STR	30	0	1
SI_	30	0	1	96	48	4
STR	30	0	5
SI_	30	0	5	96	48	0
TAP	30	48	1
TAP	30	48	5
STR	30	96	1
SI_	30	96	1	96	48	6
STR	30	96	5
SI_	30	96	5	96	48	2
BRK	30	336	1
BRK	30	336	5
TAP	31	48	2
TAP	31	48	7
TAP	31	72	3
TAP	31	72	6
TAP	31	96	4
TAP	31	96	5
TAP	31	144	0
TAP	31	144	5
TAP	31	168	1
TAP	31	168	4
TAP	31	192	2
TAP	31	192	3
TAP	31	240	1
TAP	31	240	5
TAP	31	264	2
TAP	31	264	6
BRK	31	288	3
BRK	31	288	7
STR	32	0	2
SI_	32	0	2	96	48	7
STR	32	0	6
SI_	32	0	6	96	48	3
TAP	32	48	2
TAP	32	48	6
STR	32	96	2
SI_	32	96	2	96	48	5
STR	32	96	6
SI_	32	96	6	96	48	1
BRK	32	336	2
BRK	32	336	6
TAP	33	48	3
TAP	33	48	7
TAP	33	72	2
TAP	33	72	6
BRK	33	96	1
BRK	33	96	5
TAP	33	144	0
TAP	33	144	4
TAP	33	168	1
TAP	33	168	5
BRK	33	192	2
BRK	33	192	6
STR	34	0	1
SI_	34	0	1	96	48	5
STR	34	0	7
SI_	34	0	7	96	48	3
TAP	34	48	1
TAP	34	48	7
STR	34	96	1
SCR	34	96	1	96	48	4
STR	34	96	7
SCL	34	96	7	96	48	4
BRK	34	336	2
BRK	34	336	6
TAP	35	48	0
TAP	35	48	3
TAP	35	72	1
TAP	35	72	4
TAP	35	96	2
TAP	35	96	5
TAP	35	144	4
TAP	35	144	7
TAP	35	168	3
TAP	35	168	6
TAP	35	192	2
TAP	35	192	5
TAP	35	240	0
TAP	35	240	7
TAP	35	264	1
TAP	35	264	6
BRK	35	288	2
BRK	35	288	5
STR	36	0	0
SI_	36	0	0	96	48	4
STR	36	0	6
SI_	36	0	6	96	48	2
TAP	36	48	0
TAP	36	48	6
STR	36	96	0
SCR	36	96	0	96	48	3
STR	36	96	6
SCL	36	96	6	96	48	3
BRK	36	336	1
BRK	36	336	5
TAP	37	48	0
TAP	37	48	2
TAP	37	72	3
TAP	37	72	7
BRK	37	96	4
BRK	37	96	6
TAP	37	144	5
TAP	37	144	7
TAP	37	168	0
TAP	37	168	4
BRK	37	192	1
BRK	37	192	3
TAP	38	0	2
TAP	38	24	4
TAP	38	48	3
TAP	38	72	4
TAP	38	96	3
TAP	38	120	4
TAP	38	144	1
TAP	38	168	4
TAP	38	192	3
TAP	38	216	4
TAP	38	240	3
TAP	38	264	4
TAP	38	288	6
TAP	38	312	4
TAP	38	336	3
TAP	38	360	4
TAP	39	0	3
TAP	39	24	4
TAP	39	48	5
TAP	39	72	4
TAP	39	96	3
TAP	39	120	4
TAP	39	144	3
TAP	39	168	4
TAP	39	192	2
TAP	39	208	5
TAP	39	224	3
TAP	39	240	4
TAP	39	256	2
TAP	39	272	5
TAP	39	288	3
TAP	39	304	4
TAP	39	320	2
TAP	39	336	5
TAP	39	352	3
TAP	39	368	4
TAP	40	0	2
TAP	40	16	3
TAP	40	32	4
TAP	40	48	5
TAP	40	64	4
TAP	40	80	3
BRK	40	96	2
BRK	40	144	5
TAP	40	288	0
TAP	40	288	7
TAP	41	0	1
TAP	41	24	0
TAP	41	48	2
TAP	41	72	7
TAP	41	96	3
TAP	41	120	6
TAP	41	144	4
TAP	41	168	5
TAP	41	192	3
TAP	41	216	4
TAP	41	240	2
TAP	41	264	3
TAP	41	288	1
TAP	41	312	4
TAP	41	336	0
TAP	41	360	5
TAP	42	0	7
TAP	42	24	6
TAP	42	48	0
TAP	42	72	7
TAP	42	96	1
TAP	42	120	0
TAP	42	144	2
TAP	42	168	7
TAP	42	192	1
TAP	42	216	6
TAP	42	240	0
TAP	42	264	5
TAP	42	288	7
TAP	42	312	4
TAP	42	336	0
TAP	42	360	5
TAP	43	0	1
TAP	43	24	6
TAP	43	48	2
TAP	43	72	7
TAP	43	96	3
TAP	43	120	0
TAP	43	144	2
TAP	43	168	7
TAP	43	192	1
TAP	43	216	6
TAP	43	240	0
TAP	43	264	5
TAP	43	288	7
TAP	44	0	2
TAP	44	0	3
TAP	44	48	0
TAP	44	48	6
TAP	44	96	3
TAP	44	96	4
TAP	44	144	1
TAP	44	144	2
TAP	44	192	5
TAP	44	192	6
TAP	44	240	1
TAP	44	240	7
TAP	44	288	3
TAP	44	288	4
TAP	44	336	5
TAP	44	336	6
TAP	45	0	0
TAP	45	0	1
TAP	45	48	3
TAP	45	48	5
TAP	45	96	6
TAP	45	96	7
TAP	45	144	2
TAP	45	144	4
TAP	45	192	1
TAP	45	216	2
TAP	45	240	3
TAP	45	264	4
TAP	45	288	6
TAP	45	312	5
TAP	45	336	4
TAP	45	360	3
HLD	46	0	1	48
TAP	46	72	7
TAP	46	96	7
TAP	46	120	7
HLD	46	144	6	48
TAP	46	216	0
TAP	46	240	0
TAP	46	264	0
HLD	46	288	1	48
TAP	46	360	7
TAP	47	0	7
TAP	47	24	7
TAP	47	48	6
TAP	47	72	0
TAP	47	96	0
TAP	47	120	0
STR	47	144	1
SI_	47	144	1	96	48	5
TAP	48	0	6
TAP	48	24	5
TAP	48	48	4
TAP	48	96	3
TAP	48	96	7
TAP	48	144	0
TAP	48	168	1
TAP	48	216	2
TAP	48	216	6
TAP	48	264	5
TAP	48	288	4
TAP	48	336	2
TAP	48	360	3
TAP	49	0	4
TAP	49	48	3
TAP	49	48	5
TAP	49	96	2
TAP	49	96	4
TAP	49	144	3
TAP	49	168	2
TAP	49	216	0
TAP	49	216	1
TAP	49	264	3
TAP	49	288	4
TAP	49	336	5
TAP	49	336	6
TAP	50	48	1
TAP	50	48	4
TAP	50	120	3
TAP	50	120	6
TAP	50	168	4
TAP	50	192	3
TAP	50	240	2
TAP	50	240	5
TAP	51	0	0
TAP	51	0	4
TAP	51	32	1
TAP	51	64	2
TAP	51	96	3
TAP	51	96	7
TAP	51	128	6
TAP	51	160	5
TAP	51	192	0
TAP	51	192	4
TAP	51	240	2
TAP	51	264	3
TAP	51	312	5
TAP	51	336	4
TAP	52	0	3
TAP	52	24	4
TAP	52	48	3
TAP	52	96	5
TAP	52	120	4
TAP	52	144	3
TAP	52	168	2
TAP	52	192	3
TAP	52	216	4
TAP	52	240	5
TAP	52	288	1
TAP	52	312	2
TAP	52	336	3
TAP	52	360	4
TAP	53	0	5
TAP	53	24	6
TAP	53	48	5
TAP	53	72	4
TAP	53	96	3
TAP	53	120	2
TAP	53	144	1
TAP	53	168	0
TAP	53	192	1
TAP	53	216	2
TAP	53	240	3
TAP	53	264	4
TAP	53	288	5
TAP	53	312	6
TAP	53	336	7
TAP	53	360	0
TAP	54	0	3
TAP	54	0	7
TAP	54	32	6
TAP	54	64	5
TAP	54	96	0
TAP	54	96	4
TAP	54	128	1
TAP	54	160	2
TAP	54	192	3
TAP	54	192	6
TAP	54	264	1
TAP	54	264	4
TAP	54	336	2
TAP	54	336	7
BRK	55	0	5
BRK	55	0	6
BRK	55	144	1
BRK	55	144	2
TAP	55	264	4
TAP	55	288	3
TAP	55	336	4
TAP	56	0	2
TAP	56	0	5
TAP	56	24	3
TAP	56	48	4
TAP	56	72	5
TAP	56	96	4
TAP	56	120	3
TAP	56	144	2
TAP	56	144	5
TAP	57	48	6
TAP	57	72	5
TAP	57	96	4
TAP	57	120	5
TAP	57	144	4
TAP	57	168	3
TAP	57	192	4
TAP	57	216	3
TAP	57	240	2
TAP	57	264	1
TAP	57	264	3
TAP	58	0	2
TAP	58	0	5
TAP	58	24	4
TAP	58	48	3
TAP	58	72	2
TAP	58	96	3
TAP	58	120	4
TAP	58	144	2
TAP	58	144	5
TAP	59	48	1
TAP	59	72	2
TAP	59	96	3
TAP	59	120	2
TAP	59	144	3
TAP	59	168	4
TAP	59	192	3
TAP	59	216	4
TAP	59	240	5
TAP	59	264	4
TAP	59	264	6
TAP	59	336	4
TAP	59	336	6
TAP	60	0	1
TAP	60	0	3
TAP	60	24	2
TAP	60	48	3
TAP	60	72	2
TAP	60	72	4
TAP	60	96	3
TAP	60	120	4
BRK	60	144	3
BRK	60	144	5
TAP	61	0	4
TAP	61	0	6
TAP	61	24	5
TAP	61	48	4
TAP	61	72	3
TAP	61	72	5
TAP	61	96	4
TAP	61	120	3
BRK	61	144	2
BRK	61	144	4
BRK	62	0	0
BRK	62	0	2
TAP	62	24	1
TAP	62	48	2
BRK	62	72	1
BRK	62	72	3
TAP	62	96	2
TAP	62	120	3
BRK	62	144	2
BRK	62	144	4
BRK	63	0	5
BRK	63	0	7
TAP	63	24	6
TAP	63	48	5
BRK	63	72	4
BRK	63	72	6
TAP	63	96	5
TAP	63	120	4
BRK	63	144	3
BRK	63	144	5
TAP	65	288	3
TAP	65	304	4
TAP	65	320	3
TAP	65	336	2
TAP	65	352	3
TAP	65	368	4
TAP	66	0	5
TAP	66	32	4
TAP	66	64	3
STR	66	96	2
SCR	66	96	2	96	1056	5

T_REC_TAP	504
T_REC_BRK	42
T_REC_XTP	0
T_REC_HLD	64
T_REC_XHO	0
T_REC_STR	42
T_REC_BST	0
T_REC_XST	0
T_REC_TTP	0
T_REC_THO	0
T_REC_SLD	42
T_REC_ALL	694
T_NUM_TAP	546
T_NUM_BRK	42
T_NUM_HLD	64
T_NUM_SLD	42
T_NUM_ALL	694
T_JUDGE_TAP	588
T_JUDGE_HLD	105
T_JUDGE_SLD	42
T_JUDGE_ALL	735
TTM_EACHPAIRS	127
TTM_SCR_TAP	273000
TTM_SCR_BRK	109200
TTM_SCR_HLD	64000
TTM_SCR_SLD	63000
TTM_SCR_ALL	509200
TTM_SCR_S	489850
TTM_SCR_SS	505000
TTM_RAT_ACV	10083

