VERSION	0.00.00	1.03.00
FES_MODE	0
BPM_DEF	145.000	145.000	145.000	145.000
MET_DEF	4	4
RESOLUTION	384
CLK_DEF	384
COMPATIBLE_CODE	MA2

BPM	0	0	145.000
MET	0	0	4	4

TAP	2	0	3
TAP	2	0	6
TAP	2	72	2
TAP	2	72	7
STR	2	144	0
SI_	2	144	0	96	72	3
STR	2	144	1
SI_	2	144	1	96	72	6
TAP	3	48	4
TAP	3	48	5
TAP	3	120	0
TAP	3	120	1
TAP	3	192	6
TAP	3	192	7
TAP	3	264	2
TAP	3	264	3
TAP	4	0	1
TAP	4	0	4
TAP	4	72	0
TAP	4	72	5
STR	4	144	6
SI_	4	144	6	96	72	1
STR	4	144	7
SI_	4	144	7	96	72	4
TAP	5	48	2
TAP	5	48	3
TAP	5	120	6
TAP	5	120	7
TAP	5	192	4
TAP	5	192	5
TAP	5	264	0
TAP	5	264	1
TAP	6	0	2
TAP	6	0	7
TAP	6	72	3
TAP	6	72	6
STR	6	144	4
SI_	6	144	4	96	72	7
STR	6	144	5
SI_	6	144	5	96	72	2
TAP	7	48	0
TAP	7	48	1
TAP	7	120	4
TAP	7	120	5
TAP	7	192	2
TAP	7	192	3
TAP	7	264	6
TAP	7	264	7
TAP	8	0	0
TAP	8	0	5
TAP	8	72	1
TAP	8	72	4
STR	8	144	2
SI_	8	144	2	96	72	5
STR	8	144	3
SI_	8	144	3	96	72	0
TAP	9	48	6
TAP	9	48	7
TAP	9	120	0
TAP	9	120	1
TAP	9	192	4
TAP	9	192	5
TAP	9	264	2
TAP	9	264	3
BRK	10	0	0
BRK	10	0	7
TAP	12	0	0
TAP	12	96	0
TAP	12	192	0
TAP	12	288	0
TAP	13	0	2
TAP	13	48	3
TAP	13	96	6
TAP	13	120	6
TAP	13	192	5
TAP	13	240	4
TAP	13	288	1
TAP	13	312	1
HLD	14	0	2	144
TAP	14	144	0
TAP	14	240	1
TAP	14	288	0
STR	14	336	7
SI_	14	336	7	96	72	3
TAP	15	240	2
TAP	15	288	3
TAP	15	336	4
TAP	16	0	5
TAP	16	48	4
STR	16	96	3
SI_	16	96	3	96	72	7
TAP	16	336	0
TAP	16	336	6
TAP	17	48	2
TAP	17	48	5
TAP	17	144	1
TAP	17	144	7
TAP	17	240	3
TAP	17	240	5
TAP	17	288	2
TAP	17	288	4
HLD	18	0	5	144
TAP	18	144	7
TAP	18	240	6
TAP	18	288	7
STR	18	336	0
SI_	18	336	0	96	72	4
TAP	19	240	5
TAP	19	288	4
TAP	19	336	3
TAP	20	0	2
TAP	20	48	3
STR	20	96	4
SI_	20	96	4	96	72	0
TAP	20	336	1
TAP	20	336	7
TAP	21	48	3
TAP	21	48	4
TAP	21	144	0
TAP	21	144	6
TAP	21	240	2
TAP	21	240	4
TAP	21	288	3
TAP	21	288	5
HLD	22	0	1	72
HLD	22	72	2	72
HLD	22	144	3	96
TAP	22	240	5
TAP	22	288	4
TAP	22	336	3
HLD	23	0	6	72
HLD	23	72	5	72
HLD	23	144	4	96
TAP	23	240	2
TAP	23	288	3
TAP	23	336	4
HLD	24	0	1	72
HLD	24	72	3	72
HLD	24	144	4	96
TAP	24	240	6
TAP	24	288	5
TAP	24	336	4
HLD	25	0	6	72
HLD	25	72	4	72
HLD	25	144	3	96
TAP	25	240	1
TAP	25	288	1
TAP	25	288	4
HLD	26	0	3	72
HLD	26	72	4	72
HLD	26	144	5	96
TAP	26	240	6
TAP	26	288	7
TAP	26	336	0
HLD	27	0	4	72
HLD	27	72	3	72
HLD	27	144	2	96
TAP	27	240	1
TAP	27	288	0
TAP	27	336	7
HLD	28	0	5	72
HLD	28	72	3	72
HLD	28	144	2	96
TAP	28	240	1
TAP	28	288	0
TAP	28	336	1
HLD	29	0	2	72
HLD	29	72	4	72
HLD	29	144	5	96
TAP	29	240	6
TAP	29	288	3
TAP	29	288	6
TAP	30	0	2
TAP	30	48	3
TAP	30	96	4
TAP	30	96	5
STR	30	240	6
SI_	30	240	6	96	72	3
TAP	31	48	2
TAP	31	96	0
TAP	31	96	2
TAP	31	240	5
TAP	31	288	5
TAP	31	288	7
TAP	32	0	5
TAP	32	48	4
TAP	32	96	2
TAP	32	96	3
STR	32	240	1
SI_	32	240	1	96	72	4
TAP	33	48	5
TAP	33	96	5
TAP	33	96	7
TAP	33	240	2
TAP	33	288	0
TAP	33	288	2
TAP	34	0	6
TAP	34	48	7
TAP	34	96	0
TAP	34	96	1
STR	34	240	7
SI_	34	240	7	96	72	3
TAP	35	48	2
TAP	35	96	2
TAP	35	96	4
TAP	35	240	5
TAP	35	288	3
TAP	35	288	5
TAP	36	0	1
TAP	36	48	0
TAP	36	96	6
TAP	36	96	7
STR	36	240	0
SI_	36	240	0	96	72	4
TAP	37	48	6
TAP	37	96	3
TAP	37	96	6
TAP	37	192	2
TAP	37	192	3
TAP	37	288	4
TAP	37	288	5
TAP	38	0	2
TAP	38	0	7
TAP	38	48	0
TAP	38	96	1
TAP	38	144	0
TAP	38	144	5
TAP	38	192	6
TAP	38	240	7
TAP	38	288	1
TAP	38	288	6
TAP	38	336	3
TAP	39	0	4
TAP	39	48	2
TAP	39	48	5
TAP	39	96	0
TAP	39	144	7
TAP	39	192	1
TAP	39	240	6
TAP	39	288	2
TAP	39	336	5
TAP	40	0	3
TAP	40	48	4
STR	40	96	2
SUR	40	96	2	96	192	5
HLD	41	48	6	72
HLD	41	120	7	72
TAP	41	192	0
TAP	41	264	1
TAP	41	264	6
HLD	42	0	2	72
HLD	42	72	3	72
TAP	42	144	4
TAP	42	288	1
TAP	42	288	6
HLD	43	48	5	72
HLD	43	120	4	72
TAP	43	192	3
TAP	43	264	2
TAP	43	264	5
TAP	44	48	1
TAP	44	96	1
TAP	44	96	5
TAP	44	192	7
TAP	44	240	3
TAP	44	240	7
TAP	44	336	2
TAP	45	0	2
TAP	45	0	6
TAP	45	96	4
TAP	45	144	0
TAP	45	144	4
TAP	45	240	1
TAP	45	240	6
TAP	45	288	1
TAP	45	288	6
TAP	46	0	3
TAP	46	0	4
TAP	46	96	2
TAP	46	144	0
TAP	46	144	2
TAP	46	240	5
TAP	46	288	5
TAP	46	288	7
TAP	47	0	1
TAP	47	0	6
HLD	47	96	0	192
HLD	47	144	7	144
TAP	48	0	2
TAP	48	48	7
TAP	48	96	0
TAP	48	144	5
TAP	48	192	1
TAP	48	240	4
TAP	48	288	3
TAP	48	336	6
TAP	49	0	1
TAP	49	48	3
TAP	49	96	1
TAP	49	144	6
TAP	49	192	4
TAP	49	240	6
TAP	49	288	2
TAP	49	336	7
TAP	50	48	1
TAP	50	96	3
TAP	50	144	1
TAP	50	192	4
TAP	50	240	0
TAP	51	0	5
TAP	51	32	5
TAP	51	64	5
TAP	51	96	2
TAP	51	128	2
TAP	51	160	2
TAP	51	192	6
TAP	51	256	1
TAP	51	320	0
TAP	51	320	7
TAP	52	0	6
TAP	52	48	0
TAP	52	96	7
TAP	52	144	1
TAP	52	192	5
TAP	52	240	4
TAP	52	288	3
TAP	52	336	2
TAP	53	0	1
TAP	53	48	7
TAP	53	96	0
TAP	53	144	6
TAP	53	192	2
TAP	53	240	3
TAP	53	288	4
TAP	53	336	5
TAP	54	0	3
TAP	54	48	4
TAP	54	96	2
TAP	54	144	5
TAP	54	192	1
TAP	54	240	6
TAP	54	288	0
TAP	54	336	7
BRK	55	0	0
BRK	55	0	6
TAP	55	96	0
BRK	55	144	1
BRK	55	144	7
TAP	55	240	1
TAP	55	240	6
BRK	55	288	0
BRK	55	288	7
HLD	56	0	2	288
TAP	56	72	3
HLD	56	144	4	144
TAP	57	48	6
TAP	57	48	7
TAP	57	120	2
TAP	57	120	3
TAP	57	192	4
TAP	57	192	5
TAP	57	264	0
TAP	57	264	1
HLD	58	0	6	288
TAP	58	72	7
HLD	58	144	0	144
TAP	59	48	0
TAP	59	48	1
TAP	59	120	4
TAP	59	120	5
TAP	59	192	2
TAP	59	192	3
TAP	59	264	6
TAP	59	264	7
HLD	60	0	5	288
TAP	60	72	3
HLD	60	144	1	144
HLD	61	0	2	288
TAP	61	72	4
HLD	61	144	6	144
HLD	62	0	7	288
TAP	62	72	4
HLD	62	144	1	144
HLD	63	0	0	288
TAP	63	72	3
HLD	63	144	6	144
BRK	64	0	7
TAP	65	320	2
TAP	65	352	1
TAP	66	0	0
TAP	66	32	7
TAP	66	64	6
STR	66	96	5
SCR	66	96	5	96	960	2

T_REC_TAP	303
T_REC_BRK	9
T_REC_XTP	0
T_REC_HLD	46
T_REC_XHO	0
T_REC_STR	18
T_REC_BST	0
T_REC_XST	0
T_REC_TTP	0
T_REC_THO	0
T_REC_SLD	18
T_REC_ALL	394
T_NUM_TAP	321
T_NUM_BRK	9
T_NUM_HLD	46
T_NUM_SLD	18
T_NUM_ALL	394
T_JUDGE_TAP	330
T_JUDGE_HLD	127
T_JUDGE_SLD	18
T_JUDGE_ALL	475
TTM_EACHPAIRS	84
TTM_SCR_TAP	160500
TTM_SCR_BRK	23400
TTM_SCR_HLD	46000
TTM_SCR_SLD	27000
TTM_SCR_ALL	256900
TTM_SCR_S	248350
TTM_SCR_SS	256000
TTM_RAT_ACV	10035

