VERSION	0.00.00	1.03.00
FES_MODE	0
BPM_DEF	145.000	145.000	145.000	145.000
MET_DEF	4	4
RESOLUTION	384
CLK_DEF	384
COMPATIBLE_CODE	MA2

BPM	0	0	145.000
MET	0	0	4	4

TAP	2	0	0
TAP	2	0	1
TAP	2	72	0
TAP	2	72	1
TAP	2	144	0
TAP	2	144	1
TAP	3	48	7
TAP	3	120	6
TAP	3	192	5
TAP	3	264	4
TAP	4	0	2
TAP	4	0	3
TAP	4	72	2
TAP	4	72	3
TAP	4	144	2
TAP	4	144	3
TAP	5	48	1
TAP	5	120	0
TAP	5	192	7
TAP	5	264	6
TAP	6	0	4
TAP	6	0	5
TAP	6	72	4
TAP	6	72	5
TAP	6	144	4
TAP	6	144	5
TAP	7	48	3
TAP	7	120	2
TAP	7	192	1
TAP	7	264	0
TAP	8	0	6
TAP	8	0	7
TAP	8	72	6
TAP	8	72	7
TAP	8	144	6
TAP	8	144	7
TAP	9	48	5
TAP	9	120	4
TAP	9	192	3
TAP	9	264	2
BRK	10	0	1
BRK	10	0	6
TAP	12	0	1
TAP	12	96	0
TAP	12	192	7
TAP	12	288	6
TAP	13	0	3
TAP	13	48	4
TAP	13	96	3
TAP	13	192	4
TAP	13	240	3
TAP	13	288	4
TAP	14	0	5
TAP	14	96	6
TAP	14	192	7
TAP	14	288	0
TAP	14	288	1
TAP	15	0	2
TAP	15	96	1
TAP	15	192	0
TAP	15	288	6
TAP	15	288	7
TAP	16	0	5
TAP	16	96	4
TAP	16	192	3
TAP	16	288	2
TAP	17	0	1
TAP	17	96	6
TAP	17	192	0
TAP	17	240	7
TAP	17	288	0
TAP	18	0	1
TAP	18	96	2
TAP	18	192	3
TAP	18	288	4
TAP	18	288	5
TAP	19	0	6
TAP	19	96	5
TAP	19	192	4
TAP	19	288	2
TAP	19	288	3
TAP	20	0	1
TAP	20	96	0
TAP	20	192	7
TAP	20	288	6
TAP	21	0	5
TAP	21	96	2
TAP	21	192	4
TAP	21	240	3
TAP	21	288	4
TAP	22	0	5
TAP	22	96	4
TAP	22	96	5
TAP	22	192	2
TAP	22	288	2
TAP	22	288	3
TAP	23	0	4
TAP	23	96	4
TAP	23	96	5
TAP	23	192	3
TAP	23	288	2
TAP	23	288	3
TAP	24	0	1
TAP	24	96	1
TAP	24	96	4
TAP	24	192	6
TAP	24	288	3
TAP	24	288	6
TAP	25	0	4
TAP	25	0	5
TAP	25	96	2
TAP	25	96	3
TAP	25	192	1
TAP	25	240	0
TAP	25	288	7
TAP	26	0	2
TAP	26	96	2
TAP	26	96	3
TAP	26	192	5
TAP	26	288	4
TAP	26	288	5
TAP	27	0	3
TAP	27	96	2
TAP	27	96	3
TAP	27	192	4
TAP	27	288	4
TAP	27	288	5
TAP	28	0	6
TAP	28	96	3
TAP	28	96	6
TAP	28	192	1
TAP	28	288	1
TAP	28	288	4
TAP	29	0	2
TAP	29	0	3
TAP	29	96	4
TAP	29	96	5
TAP	29	192	6
TAP	29	240	7
TAP	29	288	0
TAP	30	0	2
TAP	30	0	7
TAP	30	48	2
TAP	30	48	7
TAP	30	96	2
TAP	30	96	7
STR	30	240	0
SI_	30	240	0	96	240	5
STR	30	240	1
SI_	30	240	1	96	240	4
TAP	32	0	0
TAP	32	0	5
TAP	32	48	0
TAP	32	48	5
TAP	32	96	0
TAP	32	96	5
STR	32	240	6
SI_	32	240	6	96	240	3
STR	32	240	7
SI_	32	240	7	96	240	2
TAP	34	0	3
TAP	34	0	6
TAP	34	48	3
TAP	34	48	6
TAP	34	96	3
TAP	34	96	6
STR	34	240	4
SI_	34	240	4	96	240	1
STR	34	240	5
SI_	34	240	5	96	240	0
TAP	36	0	1
TAP	36	0	4
TAP	36	48	1
TAP	36	48	4
TAP	36	96	1
TAP	36	96	4
STR	36	240	2
SI_	36	240	2	96	240	7
STR	36	240	3
SI_	36	240	3	96	240	6
TAP	38	0	0
TAP	38	0	1
TAP	38	144	6
TAP	38	144	7
TAP	38	288	4
TAP	39	0	2
TAP	39	96	6
TAP	39	192	0
TAP	39	240	7
TAP	39	288	0
TAP	40	0	1
TAP	40	96	2
TAP	40	192	3
TAP	40	288	4
TAP	41	0	5
TAP	41	96	4
TAP	41	192	3
TAP	41	288	2
TAP	41	288	5
TAP	42	0	4
TAP	42	96	5
TAP	42	192	6
TAP	42	288	7
TAP	43	0	3
TAP	43	96	2
TAP	43	192	1
TAP	43	288	0
TAP	43	288	7
TAP	44	0	1
TAP	44	48	7
TAP	44	96	1
TAP	44	192	6
TAP	44	240	0
TAP	44	288	6
TAP	45	0	5
TAP	45	48	4
TAP	45	96	5
TAP	45	192	2
TAP	45	240	3
TAP	45	288	2
TAP	46	0	5
TAP	46	96	7
TAP	46	192	0
TAP	46	288	2
HLD	47	0	1	192
TAP	47	192	6
TAP	48	0	2
TAP	48	96	2
TAP	48	96	3
TAP	48	192	5
TAP	48	288	4
TAP	48	288	5
TAP	49	0	1
TAP	49	96	1
TAP	49	96	4
TAP	49	192	6
TAP	49	288	3
TAP	49	288	6
TAP	50	0	1
TAP	50	96	0
TAP	50	96	1
TAP	50	192	6
TAP	50	288	6
TAP	50	288	7
TAP	51	0	2
TAP	51	96	2
TAP	51	96	7
TAP	51	192	5
TAP	51	288	0
TAP	51	288	5
TAP	52	0	6
TAP	52	96	6
TAP	52	96	7
TAP	52	192	5
TAP	52	240	4
TAP	52	288	3
TAP	53	0	1
TAP	53	96	0
TAP	53	96	1
TAP	53	192	2
TAP	53	240	3
TAP	53	288	4
TAP	54	0	6
TAP	54	96	6
TAP	54	96	7
TAP	54	192	5
TAP	54	240	4
TAP	54	288	3
TAP	55	0	1
TAP	55	0	2
TAP	55	144	5
TAP	55	144	6
BRK	55	288	0
BRK	55	288	7
TAP	56	0	2
TAP	56	72	3
HLD	56	144	2	144
HLD	56	144	4	144
TAP	57	48	5
TAP	57	120	4
TAP	57	192	3
TAP	57	264	2
TAP	58	0	6
TAP	58	72	7
HLD	58	144	0	144
HLD	58	144	6	144
TAP	59	48	1
TAP	59	120	0
TAP	59	192	7
TAP	59	264	6
TAP	60	0	5
TAP	60	72	3
HLD	60	144	1	144
HLD	60	144	5	144
TAP	61	0	2
TAP	61	72	4
HLD	61	144	2	144
HLD	61	144	6	144
TAP	62	0	7
TAP	62	72	2
HLD	62	144	1	144
HLD	62	144	7	144
TAP	63	0	0
TAP	63	72	5
HLD	63	144	0	144
HLD	63	144	6	144
STR	64	0	7
SSR	64	0	7	96	384	3
STR	66	96	2
SCL	66	96	2	96	672	5

T_REC_TAP	273
T_REC_BRK	4
T_REC_XTP	0
T_REC_HLD	13
T_REC_XHO	0
T_REC_STR	10
T_REC_BST	0
T_REC_XST	0
T_REC_TTP	0
T_REC_THO	0
T_REC_SLD	10
T_REC_ALL	310
T_NUM_TAP	283
T_NUM_BRK	4
T_NUM_HLD	13
T_NUM_SLD	10
T_NUM_ALL	310
T_JUDGE_TAP	287
T_JUDGE_HLD	40
T_JUDGE_SLD	10
T_JUDGE_ALL	337
TTM_EACHPAIRS	73
TTM_SCR_TAP	141500
TTM_SCR_BRK	10400
TTM_SCR_HLD	13000
TTM_SCR_SLD	15000
TTM_SCR_ALL	179900
TTM_SCR_S	174150
TTM_SCR_SS	179500
TTM_RAT_ACV	10022

