VERSION	0.00.00	1.03.00
FES_MODE	0
BPM_DEF	145.000	145.000	145.000	145.000
MET_DEF	4	4
RESOLUTION	384
CLK_DEF	384
COMPATIBLE_CODE	MA2

BPM	0	0	145.000
MET	0	0	4	4

HLD	6	0	0	144
TAP	7	0	0
TAP	7	192	0
HLD	8	0	0	144
TAP	9	0	0
TAP	9	192	0
BRK	10	0	7
TAP	12	0	1
TAP	12	192	1
TAP	13	0	0
TAP	13	0	1
TAP	13	192	0
TAP	13	192	1
TAP	14	96	7
TAP	14	288	7
TAP	15	96	0
TAP	15	288	0
TAP	16	96	7
TAP	16	288	7
TAP	17	96	0
TAP	17	288	0
TAP	18	96	1
TAP	18	288	1
TAP	19	96	0
TAP	19	288	0
TAP	20	96	1
TAP	20	288	1
TAP	21	96	0
TAP	21	288	0
TAP	22	96	7
TAP	22	288	7
TAP	23	96	6
TAP	23	288	6
TAP	24	96	7
TAP	24	288	7
TAP	25	96	6
TAP	25	288	6
TAP	26	96	6
TAP	26	96	7
TAP	26	288	6
TAP	26	288	7
TAP	27	96	0
TAP	27	96	1
TAP	27	288	0
TAP	27	288	1
TAP	28	96	6
TAP	28	96	7
TAP	28	288	6
TAP	28	288	7
TAP	29	96	0
TAP	29	96	1
TAP	29	288	0
TAP	29	288	1
TAP	30	0	1
STR	30	192	1
SI_	30	192	1	96	288	4
TAP	32	0	6
STR	32	192	6
SI_	32	192	6	96	288	3
TAP	34	0	0
STR	34	192	0
SI_	34	192	0	96	288	4
TAP	36	0	7
STR	36	192	7
SI_	36	192	7	96	288	3
TAP	38	0	2
TAP	38	192	2
TAP	39	0	3
TAP	39	96	3
TAP	39	192	4
TAP	39	288	4
STR	40	0	5
SI_	40	0	5	96	288	2
STR	42	0	1
SI_	42	0	1	96	288	6
HLD	44	0	7	192
TAP	45	0	7
TAP	45	192	7
HLD	46	0	0	192
TAP	47	0	0
BRK	47	192	0
TAP	48	96	1
TAP	48	288	1
TAP	49	96	0
TAP	49	96	1
TAP	49	288	0
TAP	49	288	1
TAP	50	96	6
TAP	50	288	6
TAP	51	96	6
TAP	51	96	7
TAP	51	288	6
TAP	51	288	7
TAP	52	96	5
TAP	52	288	4
TAP	53	96	3
TAP	53	288	2
TAP	54	96	1
TAP	54	288	0
TAP	54	288	7
TAP	55	0	0
TAP	55	0	7
HLD	56	0	0	144
TAP	57	0	0
TAP	57	192	0
HLD	58	0	7	144
TAP	59	0	7
TAP	59	192	7
HLD	60	0	0	144
HLD	61	0	7	144
HLD	62	0	1	144
HLD	63	0	6	144
STR	64	0	0
SI_	64	0	0	96	288	4
HLD	66	96	3	1152
HLD	66	96	4	1152

T_REC_TAP	88
T_REC_BRK	2
T_REC_XTP	0
T_REC_HLD	12
T_REC_XHO	0
T_REC_STR	7
T_REC_BST	0
T_REC_XST	0
T_REC_TTP	0
T_REC_THO	0
T_REC_SLD	7
T_REC_ALL	116
T_NUM_TAP	95
T_NUM_BRK	2
T_NUM_HLD	12
T_NUM_SLD	7
T_NUM_ALL	116
T_JUDGE_TAP	97
T_JUDGE_HLD	80
T_JUDGE_SLD	7
T_JUDGE_ALL	184
TTM_EACHPAIRS	17
TTM_SCR_TAP	47500
TTM_SCR_BRK	5200
TTM_SCR_HLD	12000
TTM_SCR_SLD	10500
TTM_SCR_ALL	75200
TTM_SCR_S	72750
TTM_SCR_SS	75000
TTM_RAT_ACV	10026

