VERSION	0.00.00	1.03.00
FES_MODE	0
BPM_DEF	159.000	159.000	159.000	159.000
MET_DEF	4	4
RESOLUTION	384
CLK_DEF	384
COMPATIBLE_CODE	MA2

BPM	0	0	159.000
MET	0	0	4	4

TAP	1	0	2
TAP	1	192	5
BRK	2	0	0
TAP	3	192	5
TAP	3	240	5
TAP	3	288	5
TAP	3	336	5
TAP	4	0	0
TAP	4	48	1
TAP	4	96	2
TAP	4	120	3
TAP	4	144	2
TAP	4	192	4
TAP	4	192	5
TAP	4	240	6
TAP	4	288	5
TAP	5	0	7
TAP	5	48	6
TAP	5	96	5
TAP	5	120	4
TAP	5	144	5
TAP	5	192	2
TAP	5	192	3
TAP	5	240	1
TAP	5	288	2
TAP	6	0	0
TAP	6	48	1
TAP	6	96	2
TAP	6	120	3
TAP	6	144	2
TAP	6	192	4
TAP	6	192	5
TAP	6	240	7
TAP	6	288	5
TAP	6	288	6
TAP	7	0	7
TAP	7	48	6
TAP	7	96	5
TAP	7	120	4
TAP	7	144	5
TAP	7	192	2
TAP	7	192	3
TAP	7	240	0
TAP	7	288	1
TAP	7	288	2
TAP	8	0	0
TAP	8	48	1
TAP	8	96	5
TAP	8	120	4
TAP	8	144	5
STR	8	192	2
SI_	8	192	2	96	48	6
TAP	8	240	3
TAP	9	0	7
TAP	9	48	6
TAP	9	96	2
TAP	9	120	3
TAP	9	144	2
STR	9	192	5
SI_	9	192	5	96	48	1
TAP	9	240	4
TAP	10	0	0
TAP	10	48	1
TAP	10	96	5
TAP	10	120	4
TAP	10	144	5
STR	10	192	3
SI_	10	192	3	96	48	7
TAP	10	240	2
TAP	11	0	7
TAP	11	48	6
TAP	11	96	2
TAP	11	120	3
TAP	11	144	2
TAP	11	192	4
TAP	11	240	5
BRK	11	288	0
TAP	12	0	1
TAP	12	48	0
TAP	12	96	3
TAP	12	144	5
TAP	12	168	4
TAP	12	216	4
TAP	12	240	5
TAP	12	288	4
TAP	12	288	5
TAP	13	0	6
TAP	13	48	7
TAP	13	96	4
TAP	13	144	2
TAP	13	168	3
TAP	13	216	3
TAP	13	240	2
TAP	13	288	2
TAP	13	288	3
TAP	14	0	1
TAP	14	48	0
TAP	14	96	3
TAP	14	144	5
TAP	14	168	4
TAP	14	216	4
TAP	14	240	5
TAP	14	288	3
TAP	14	288	6
TAP	15	0	6
TAP	15	48	7
TAP	15	96	4
TAP	15	144	2
TAP	15	168	3
TAP	15	216	3
TAP	15	240	2
TAP	15	288	1
TAP	15	288	4
TAP	15	336	0
TAP	16	0	7
TAP	16	48	6
TAP	16	96	5
TAP	16	144	1
TAP	16	168	0
TAP	16	216	0
TAP	16	240	1
TAP	16	288	2
TAP	16	288	3
TAP	17	0	0
TAP	17	48	1
TAP	17	96	2
TAP	17	144	6
TAP	17	168	7
TAP	17	216	7
TAP	17	240	6
TAP	17	288	4
TAP	17	288	5
TAP	18	0	7
TAP	18	48	6
TAP	18	96	5
TAP	18	144	1
TAP	18	168	0
TAP	18	216	0
TAP	18	240	1
TAP	18	288	3
TAP	18	336	4
TAP	19	0	6
TAP	19	48	6
TAP	19	96	1
TAP	19	120	0
TAP	19	144	1
TAP	19	192	5
TAP	19	216	4
TAP	19	240	5
TAP	19	264	4
TAP	19	288	6
TAP	19	312	4
TAP	19	336	5
TAP	20	0	2
TAP	20	24	3
TAP	20	48	2
TAP	20	72	3
TAP	20	96	2
TAP	20	144	6
TAP	20	168	7
TAP	20	192	6
TAP	20	216	7
TAP	20	240	6
TAP	20	288	1
TAP	20	312	0
TAP	20	336	1
TAP	20	360	0
TAP	21	0	1
TAP	21	48	5
TAP	21	72	4
TAP	21	96	5
TAP	21	120	4
TAP	21	144	5
TAP	21	192	2
TAP	21	192	3
TAP	21	240	1
TAP	21	264	0
TAP	21	288	7
STR	21	312	6
SCR	21	312	6	96	120	1
HLD	21	336	5	336
TAP	22	240	4
STR	22	288	4
SI_	22	288	4	96	48	0
STR	23	0	2
SI_	23	0	2	96	48	7
STR	23	96	5
SI_	23	96	5	96	48	0
STR	23	192	3
SI_	23	192	3	96	48	7
TAP	24	0	1
TAP	24	48	2
TAP	24	96	3
TAP	24	144	6
TAP	24	168	7
TAP	24	216	7
TAP	24	240	5
TAP	24	288	4
TAP	24	336	3
TAP	25	0	6
TAP	25	48	5
TAP	25	96	4
TAP	25	144	1
TAP	25	168	0
TAP	25	216	0
TAP	25	240	2
TAP	25	288	3
TAP	25	336	4
STR	26	0	0
SI_	26	0	0	96	48	5
STR	26	96	7
SI_	26	96	7	96	48	2
STR	26	192	1
SI_	26	192	1	96	48	4
STR	26	288	6
SCL	26	288	6	96	192	3
STR	27	192	0
SI_	27	192	0	96	48	4
BRK	27	288	0
TAP	28	0	6
TAP	28	48	2
TAP	28	72	3
TAP	28	96	2
TAP	28	120	1
TAP	28	144	2
TAP	28	192	5
TAP	28	192	7
TAP	28	240	6
TAP	28	288	4
TAP	28	288	5
TAP	29	0	1
TAP	29	48	5
TAP	29	72	4
TAP	29	96	5
TAP	29	120	6
TAP	29	144	5
TAP	29	192	0
TAP	29	192	2
TAP	29	240	1
TAP	29	288	2
TAP	29	288	3
TAP	30	0	6
TAP	30	48	2
TAP	30	72	3
TAP	30	96	2
TAP	30	120	1
TAP	30	144	2
TAP	30	192	6
TAP	30	240	5
TAP	30	288	4
TAP	30	288	7
TAP	31	0	1
TAP	31	48	5
TAP	31	72	4
TAP	31	96	5
TAP	31	120	6
TAP	31	144	5
TAP	31	192	1
TAP	31	240	2
TAP	31	288	0
TAP	31	288	3
TAP	32	0	1
TAP	32	48	5
TAP	32	72	3
TAP	32	96	4
TAP	32	120	6
TAP	32	144	4
STR	32	192	6
SI_	32	192	6	96	48	2
TAP	32	240	5
TAP	33	0	6
TAP	33	48	2
TAP	33	72	4
TAP	33	96	3
TAP	33	120	1
TAP	33	144	3
STR	33	192	1
SI_	33	192	1	96	48	5
TAP	33	240	2
TAP	34	0	1
TAP	34	48	5
TAP	34	72	3
TAP	34	96	4
TAP	34	120	6
TAP	34	144	4
STR	34	192	6
SI_	34	192	6	96	48	2
TAP	34	240	5
TAP	35	0	0
TAP	35	24	4
TAP	35	48	1
TAP	35	72	5
TAP	35	96	2
TAP	35	120	6
TAP	35	144	3
TAP	35	168	7
TAP	35	192	2
TAP	35	216	6
TAP	35	240	1
TAP	35	264	5
TAP	35	288	0
TAP	35	312	4
BRK	35	336	7
TAP	36	0	1
TAP	36	48	0
TAP	36	96	7
TAP	36	144	2
TAP	36	168	3
TAP	36	216	5
TAP	36	240	4
TAP	36	288	1
TAP	36	288	2
TAP	36	336	3
TAP	37	0	6
TAP	37	48	7
TAP	37	96	0
TAP	37	144	5
TAP	37	168	4
TAP	37	216	2
TAP	37	240	3
TAP	37	288	5
TAP	37	288	6
TAP	37	336	4
TAP	38	0	1
TAP	38	48	0
TAP	38	96	7
TAP	38	144	2
TAP	38	168	3
TAP	38	216	5
TAP	38	240	4
TAP	38	288	1
TAP	38	288	2
TAP	38	336	2
TAP	38	336	3
TAP	39	0	6
TAP	39	48	7
TAP	39	96	0
TAP	39	144	5
TAP	39	168	4
TAP	39	216	2
TAP	39	240	3
TAP	39	288	5
TAP	39	288	6
STR	40	0	0
SI_	40	0	0	96	48	3
STR	40	48	3
SCL	40	48	3	96	48	0
STR	40	192	4
SI_	40	192	4	96	48	7
STR	40	240	7
SCL	40	240	7	96	48	4
TAP	41	0	3
TAP	41	48	2
TAP	41	96	1
STR	41	144	0
SI_	41	144	0	96	48	3
STR	41	144	4
SI_	41	144	4	96	48	7
STR	41	192	3
SCL	41	192	3	96	48	0
STR	41	192	7
SCL	41	192	7	96	48	4
TAP	42	0	2
TAP	42	24	3
TAP	42	72	3
TAP	42	96	4
TAP	42	144	4
TAP	42	168	5
TAP	42	216	5
TAP	42	240	6
TAP	42	288	6
TAP	42	312	7
TAP	42	360	7
STR	43	0	0
SCR	43	0	0	96	48	3
STR	43	48	3
SCR	43	48	3	96	48	6
HLD	43	192	7	96
STR	43	336	1
SI_	43	336	1	96	48	4
TAP	43	360	0
TAP	44	0	1
TAP	44	96	5
TAP	44	120	5
TAP	44	168	2
TAP	44	192	3
TAP	44	216	2
TAP	44	264	2
TAP	44	264	3
STR	44	336	6
SI_	44	336	6	96	48	3
TAP	44	360	7
TAP	45	0	6
TAP	45	96	2
TAP	45	120	2
TAP	45	168	5
TAP	45	192	4
TAP	45	216	5
TAP	45	264	4
TAP	45	264	5
TAP	45	336	1
TAP	45	360	0
TAP	46	24	2
TAP	46	24	7
TAP	46	96	6
TAP	46	120	7
TAP	46	168	0
TAP	46	168	5
TAP	46	240	3
TAP	46	264	4
TAP	46	312	2
TAP	46	312	5
STR	47	0	3
SI_	47	0	3	96	216	0
TAP	47	0	4
TAP	47	48	4
TAP	47	96	5
TAP	47	144	6
STR	47	192	7
SI_	47	192	7	96	24	4
TAP	47	240	7
TAP	48	0	2
TAP	48	48	5
TAP	48	72	4
TAP	48	96	5
TAP	48	144	1
TAP	48	168	0
TAP	48	192	1
TAP	48	240	6
TAP	48	264	7
TAP	48	288	6
TAP	48	336	2
TAP	48	360	3
TAP	49	0	2
TAP	49	48	5
TAP	49	72	4
TAP	49	96	5
TAP	49	144	2
TAP	49	168	3
TAP	49	192	2
TAP	49	240	4
TAP	49	288	5
TAP	49	336	6
BRK	50	0	7
BRK	50	96	1
BRK	50	192	3
BRK	50	288	5
STR	51	0	0
SI_	51	0	0	96	48	3
STR	51	48	0
SI_	51	48	0	96	48	5
STR	51	96	0
SI_	51	96	0	96	48	4
STR	51	144	0
SCR	51	144	0	96	48	3
STR	51	192	0
SCL	51	192	0	96	48	5
TAP	51	240	0
BRK	51	288	0
TAP	52	0	4
TAP	52	48	2
TAP	52	72	3
TAP	52	96	2
TAP	52	120	1
STR	52	144	2
SI_	52	144	2	96	48	6
STR	52	192	5
SI_	52	192	5	96	48	0
TAP	53	0	3
TAP	53	48	5
TAP	53	72	4
TAP	53	96	5
TAP	53	120	6
STR	53	144	5
SI_	53	144	5	96	48	1
STR	53	192	2
SI_	53	192	2	96	48	7
TAP	54	0	4
TAP	54	48	2
TAP	54	72	3
TAP	54	96	2
TAP	54	120	1
STR	54	144	2
SI_	54	144	2	96	48	7
STR	54	192	5
SI_	54	192	5	96	48	2
TAP	55	0	3
TAP	55	48	5
TAP	55	72	4
TAP	55	96	5
TAP	55	120	6
STR	55	144	5
SI_	55	144	5	96	48	1
STR	55	192	1
SI_	55	192	1	96	48	5
TAP	56	0	5
TAP	56	48	2
TAP	56	72	4
TAP	56	96	3
TAP	56	120	1
STR	56	144	2
SI_	56	144	2	96	48	7
STR	56	192	6
SI_	56	192	6	96	48	3
TAP	57	0	2
TAP	57	48	5
TAP	57	72	3
TAP	57	96	4
TAP	57	120	6
STR	57	144	5
SI_	57	144	5	96	48	0
STR	57	192	1
SI_	57	192	1	96	48	4
TAP	58	0	5
TAP	58	48	1
TAP	58	72	4
TAP	58	96	3
TAP	58	120	1
TAP	58	144	2
TAP	58	192	2
TAP	58	240	3
TAP	58	288	4
TAP	58	336	5
TAP	59	0	6
TAP	59	0	7
TAP	59	96	4
TAP	59	96	5
TAP	59	192	2
TAP	59	192	3
TAP	59	288	0
TAP	59	288	1
BRK	60	0	6
STR	60	0	7
SCR	60	0	7	96	60	2
STR	60	48	1
SCR	60	48	1	96	60	4
STR	60	192	0
SCL	60	192	0	96	60	5
STR	60	240	6
SCL	60	240	6	96	60	3
STR	61	0	7
SCR	61	0	7	96	60	2
STR	61	48	1
SCR	61	48	1	96	60	4
STR	61	96	3
SCR	61	96	3	96	60	6
STR	61	192	6
SI_	61	192	6	96	48	2
TAP	62	0	2
TAP	62	24	3
TAP	62	48	2
TAP	62	72	3
TAP	62	96	1
TAP	62	120	0
TAP	62	144	1
TAP	62	192	5
TAP	62	240	4
TAP	62	288	5
TAP	62	336	6
STR	63	0	1
SI_	63	0	1	96	48	5
STR	63	96	3
SI_	63	96	3	96	48	7
STR	63	192	4
SI_	63	192	4	96	48	0
BRK	63	288	6
TAP	64	0	5
TAP	64	24	4
TAP	64	48	5
TAP	64	72	4
STR	64	96	5
SI_	64	96	5	96	48	2
TAP	64	120	6
STR	64	144	5
SI_	64	144	5	96	48	0
STR	64	192	5
SI_	64	192	5	96	48	1
TAP	65	0	2
TAP	65	24	3
TAP	65	48	2
TAP	65	72	3
STR	65	96	2
SI_	65	96	2	96	48	5
TAP	65	120	1
STR	65	144	2
SI_	65	144	2	96	48	7
STR	65	192	2
SI_	65	192	2	96	48	6
TAP	66	0	5
TAP	66	24	4
TAP	66	48	5
TAP	66	72	6
STR	66	96	5
SI_	66	96	5	96	48	2
TAP	66	120	4
STR	66	144	5
SI_	66	144	5	96	48	0
STR	66	192	5
SI_	66	192	5	96	48	1
TAP	67	0	2
TAP	67	24	3
TAP	67	48	2
TAP	67	72	1
TAP	67	96	2
TAP	67	120	3
STR	67	144	2
SI_	67	144	2	96	48	6
STR	67	192	6
SI_	67	192	6	96	48	2
TAP	68	0	6
TAP	68	24	7
TAP	68	48	6
TAP	68	72	5
STR	68	96	6
SI_	68	96	6	96	48	2
TAP	68	120	7
STR	68	144	6
SCR	68	144	6	96	48	1
STR	68	192	6
SCL	68	192	6	96	48	3
TAP	69	0	1
TAP	69	24	0
TAP	69	48	1
TAP	69	72	2
STR	69	96	1
SI_	69	96	1	96	48	5
TAP	69	120	0
STR	69	144	1
SCL	69	144	1	96	48	6
STR	69	192	1
SCR	69	192	1	96	48	4
TAP	70	0	6
TAP	70	24	7
TAP	70	48	6
TAP	70	72	5
TAP	70	96	6
TAP	70	120	7
STR	70	144	6
SCR	70	144	6	96	60	1
STR	70	192	0
SCR	70	192	0	96	60	3
STR	70	240	2
SCR	70	240	2	96	60	5
STR	71	0	0
SI_	71	0	0	96	48	5
STR	71	96	7
SI_	71	96	7	96	48	2
STR	71	192	1
SI_	71	192	1	96	48	4
STR	71	288	6
SI_	71	288	6	96	48	3

T_REC_TAP	474
T_REC_BRK	11
T_REC_XTP	0
T_REC_HLD	2
T_REC_XHO	0
T_REC_STR	82
T_REC_BST	0
T_REC_XST	0
T_REC_TTP	0
T_REC_THO	0
T_REC_SLD	82
T_REC_ALL	651
T_NUM_TAP	556
T_NUM_BRK	11
T_NUM_HLD	2
T_NUM_SLD	82
T_NUM_ALL	651
T_JUDGE_TAP	567
T_JUDGE_HLD	9
T_JUDGE_SLD	82
T_JUDGE_ALL	658
TTM_EACHPAIRS	37
TTM_SCR_TAP	278000
TTM_SCR_BRK	28600
TTM_SCR_HLD	2000
TTM_SCR_SLD	123000
TTM_SCR_ALL	431600
TTM_SCR_S	417600
TTM_SCR_SS	430500
TTM_RAT_ACV	10025

