VERSION	0.00.00	1.03.00
FES_MODE	0
BPM_DEF	159.000	159.000	159.000	159.000
MET_DEF	4	4
RESOLUTION	384
CLK_DEF	384
COMPATIBLE_CODE	MA2

BPM	0	0	159.000
MET	0	0	4	4

HLD	1	0	3	96
HLD	1	192	3	96
STR	2	0	3
SI_	2	0	3	96	480	0
TAP	4	0	0
TAP	4	96	5
TAP	4	144	2
TAP	4	192	3
TAP	4	240	2
TAP	4	288	5
TAP	5	0	7
TAP	5	96	2
TAP	5	144	5
TAP	5	192	4
TAP	5	240	5
TAP	5	288	2
TAP	6	0	0
TAP	6	96	5
TAP	6	144	2
TAP	6	192	3
TAP	6	240	2
TAP	6	288	5
TAP	7	0	7
TAP	7	96	2
TAP	7	144	5
TAP	7	192	4
BRK	7	240	7
BRK	7	288	7
TAP	8	0	3
TAP	8	48	6
TAP	8	96	2
TAP	8	144	4
TAP	8	192	5
TAP	8	240	4
TAP	8	288	2
TAP	9	0	4
TAP	9	48	1
TAP	9	96	5
TAP	9	144	3
TAP	9	192	2
TAP	9	240	3
TAP	9	288	5
TAP	10	0	3
TAP	10	48	6
TAP	10	96	2
TAP	10	144	4
TAP	10	192	5
TAP	10	240	4
TAP	10	288	2
TAP	11	0	4
TAP	11	48	1
TAP	11	96	5
TAP	11	144	3
TAP	11	192	4
BRK	11	240	7
BRK	11	288	7
TAP	12	0	6
TAP	12	48	7
TAP	12	96	3
TAP	12	144	3
TAP	12	192	1
TAP	12	240	0
TAP	12	288	4
TAP	12	336	4
TAP	13	48	6
TAP	13	96	1
TAP	13	144	6
TAP	13	192	5
TAP	13	240	7
TAP	13	288	0
TAP	13	336	2
TAP	14	0	0
TAP	14	48	6
TAP	14	96	5
TAP	14	144	5
TAP	14	192	7
TAP	14	240	1
TAP	14	288	2
TAP	14	336	2
TAP	15	0	1
TAP	15	48	4
TAP	15	96	4
TAP	15	144	3
TAP	15	192	6
TAP	15	240	3
TAP	15	288	3
TAP	15	336	4
TAP	16	0	2
TAP	16	48	6
TAP	16	96	1
TAP	16	144	5
TAP	16	192	0
TAP	16	240	4
TAP	16	288	3
TAP	16	336	7
HLD	17	48	6	72
HLD	17	120	7	72
HLD	17	192	0	72
HLD	17	264	1	72
TAP	17	336	0
TAP	18	0	7
TAP	18	48	1
TAP	18	96	3
TAP	18	144	3
TAP	18	192	0
TAP	18	240	6
TAP	18	288	4
TAP	18	336	4
TAP	19	0	7
TAP	19	48	0
TAP	19	96	7
TAP	19	144	0
TAP	19	192	6
TAP	19	240	7
TAP	19	288	1
TAP	19	336	0
TAP	20	0	6
TAP	20	48	3
TAP	20	96	6
TAP	20	144	3
TAP	20	192	6
TAP	20	240	0
TAP	20	288	0
TAP	20	288	3
TAP	21	0	1
TAP	21	48	4
TAP	21	96	1
TAP	21	144	4
TAP	21	192	1
TAP	21	240	7
TAP	21	288	4
TAP	21	288	7
STR	21	336	4
SI_	21	336	4	96	240	0
TAP	23	0	1
TAP	23	0	4
TAP	23	96	4
TAP	23	96	5
TAP	23	192	3
TAP	23	192	6
TAP	23	288	2
TAP	23	288	3
TAP	24	0	0
TAP	24	48	5
TAP	24	96	0
TAP	24	144	5
TAP	24	192	0
TAP	24	240	5
TAP	24	288	4
TAP	24	336	3
TAP	25	48	2
TAP	25	96	7
TAP	25	144	2
TAP	25	192	3
TAP	25	240	2
TAP	25	288	1
TAP	25	336	0
TAP	26	0	6
TAP	26	0	7
TAP	26	96	2
TAP	26	96	7
TAP	26	192	0
TAP	26	192	1
TAP	26	288	0
TAP	26	288	5
STR	27	0	7
SI_	27	0	7	96	48	2
STR	27	96	1
SI_	27	96	1	96	48	5
STR	27	192	6
SI_	27	192	6	96	48	3
BRK	27	288	0
TAP	28	0	5
TAP	28	48	3
TAP	28	96	2
TAP	28	144	3
TAP	28	192	5
TAP	28	240	7
TAP	28	288	7
TAP	29	0	2
TAP	29	48	4
TAP	29	96	5
TAP	29	144	4
TAP	29	192	2
TAP	29	240	0
TAP	29	288	0
TAP	30	0	5
TAP	30	48	3
TAP	30	96	2
TAP	30	144	3
TAP	30	192	5
TAP	30	240	7
TAP	30	288	7
TAP	31	0	2
TAP	31	48	4
TAP	31	96	6
TAP	31	144	3
TAP	31	192	2
BRK	31	240	0
BRK	31	288	0
TAP	32	0	1
TAP	32	48	6
TAP	32	96	7
TAP	32	144	5
TAP	32	192	3
TAP	32	240	1
TAP	32	288	1
TAP	32	288	2
TAP	33	0	6
TAP	33	48	1
TAP	33	96	0
TAP	33	144	2
TAP	33	192	4
TAP	33	240	6
TAP	33	288	5
TAP	33	288	6
TAP	34	0	1
TAP	34	48	6
TAP	34	96	7
TAP	34	144	5
TAP	34	192	3
TAP	34	240	1
TAP	34	288	1
TAP	34	288	2
TAP	35	0	6
TAP	35	48	1
TAP	35	96	7
TAP	35	144	2
TAP	35	192	5
BRK	35	240	0
BRK	35	288	0
BRK	35	288	7
TAP	36	0	6
TAP	36	48	1
TAP	36	96	2
TAP	36	144	6
TAP	36	192	5
TAP	36	240	1
TAP	36	288	2
TAP	36	336	6
TAP	37	0	5
TAP	37	48	6
TAP	37	96	2
TAP	37	144	1
TAP	37	192	5
TAP	37	240	6
TAP	37	288	5
TAP	37	336	2
TAP	38	0	3
TAP	38	48	2
TAP	38	96	5
TAP	38	144	4
TAP	38	192	2
TAP	38	240	3
TAP	38	288	4
TAP	38	336	5
TAP	39	0	2
TAP	39	48	3
TAP	39	96	2
TAP	39	144	5
TAP	39	192	4
TAP	39	240	5
TAP	39	288	3
TAP	40	0	0
TAP	40	48	1
TAP	40	96	7
TAP	40	144	6
TAP	40	192	0
TAP	40	240	1
TAP	40	288	0
TAP	40	336	7
TAP	41	0	1
TAP	41	48	0
TAP	41	96	6
TAP	41	144	7
TAP	41	192	1
TAP	41	240	7
TAP	41	288	6
TAP	42	0	0
TAP	42	24	0
TAP	42	72	6
TAP	42	96	6
TAP	42	144	1
TAP	42	168	1
TAP	42	216	7
TAP	42	240	7
TAP	42	288	1
TAP	42	312	1
TAP	42	360	6
TAP	43	0	6
TAP	43	48	0
TAP	43	72	0
TAP	43	96	7
TAP	43	120	7
STR	43	144	1
SCL	43	144	1	96	96	6
TAP	44	0	7
TAP	44	48	0
TAP	44	96	1
TAP	44	144	2
TAP	44	168	2
TAP	44	216	3
TAP	44	240	3
TAP	44	288	4
TAP	45	0	0
TAP	45	48	7
TAP	45	96	6
TAP	45	144	5
TAP	45	168	5
TAP	45	216	4
TAP	45	240	4
TAP	45	288	3
TAP	45	336	2
TAP	45	360	2
TAP	46	24	3
TAP	46	96	6
TAP	46	120	6
TAP	46	168	5
TAP	46	240	0
TAP	46	264	0
TAP	46	312	1
TAP	47	0	7
TAP	47	48	6
TAP	47	96	7
TAP	47	144	0
TAP	47	192	1
TAP	47	240	0
TAP	47	288	2
TAP	47	288	5
TAP	48	0	3
TAP	48	48	2
TAP	48	72	2
TAP	48	96	2
TAP	48	144	1
TAP	48	168	1
TAP	48	192	1
TAP	48	240	0
TAP	48	264	0
TAP	48	288	0
TAP	48	336	7
TAP	48	360	7
TAP	49	0	7
TAP	49	48	6
TAP	49	72	6
TAP	49	96	6
TAP	49	144	5
TAP	49	168	5
TAP	49	192	5
TAP	49	240	4
TAP	49	288	4
TAP	49	336	3
TAP	50	0	3
TAP	50	96	5
TAP	50	192	7
TAP	50	288	1
BRK	51	0	3
BRK	51	48	5
BRK	51	96	7
BRK	51	144	1
HLD	51	192	3	96
BRK	51	288	7
TAP	52	0	1
TAP	52	48	5
TAP	52	96	3
TAP	52	144	2
TAP	52	192	3
TAP	52	240	5
TAP	52	288	1
TAP	53	0	6
TAP	53	48	2
TAP	53	96	4
TAP	53	144	5
TAP	53	192	4
TAP	53	240	2
TAP	53	288	6
TAP	54	0	1
TAP	54	48	5
TAP	54	96	3
TAP	54	144	2
TAP	54	192	3
TAP	54	240	5
TAP	54	288	1
TAP	55	0	6
TAP	55	48	2
TAP	55	96	4
TAP	55	144	5
TAP	55	192	2
TAP	55	240	0
TAP	55	288	7
TAP	55	336	5
TAP	56	0	6
TAP	56	48	2
TAP	56	96	4
TAP	56	144	5
TAP	56	192	4
TAP	56	240	2
TAP	56	288	6
TAP	57	0	1
TAP	57	48	5
TAP	57	96	3
TAP	57	144	2
TAP	57	192	3
TAP	57	240	5
TAP	57	288	1
TAP	58	0	6
TAP	58	48	2
TAP	58	96	4
TAP	58	144	5
TAP	58	192	4
TAP	58	240	2
TAP	58	288	6
BRK	59	0	0
BRK	59	0	1
BRK	59	96	5
BRK	59	96	6
BRK	59	192	2
BRK	59	192	3
BRK	59	288	0
BRK	59	288	7
HLD	60	0	4	192
TAP	60	0	5
TAP	60	96	2
TAP	60	192	5
TAP	60	288	0
TAP	60	288	7
TAP	61	0	2
HLD	61	0	3	192
TAP	61	96	5
TAP	61	192	2
TAP	61	288	0
TAP	61	288	7
HLD	62	0	4	192
TAP	62	0	5
TAP	62	96	2
TAP	62	192	5
TAP	62	288	0
TAP	62	288	7
STR	63	0	3
SI_	63	0	3	96	48	6
STR	63	96	5
SI_	63	96	5	96	48	1
STR	63	192	2
SI_	63	192	2	96	48	7
BRK	63	288	0
TAP	64	0	1
TAP	64	48	5
TAP	64	96	7
TAP	64	144	4
TAP	64	192	3
TAP	64	240	0
BRK	64	288	2
TAP	65	0	6
TAP	65	48	2
TAP	65	96	0
TAP	65	144	3
TAP	65	192	4
TAP	65	240	7
BRK	65	288	5
TAP	66	0	1
TAP	66	48	5
TAP	66	96	7
TAP	66	144	4
TAP	66	192	3
TAP	66	240	0
BRK	66	288	2
TAP	67	0	6
TAP	67	48	2
TAP	67	96	0
TAP	67	144	3
BRK	67	192	7
TAP	67	240	4
BRK	67	288	0
TAP	67	336	3
TAP	68	0	5
TAP	68	48	1
TAP	68	96	3
TAP	68	144	0
TAP	68	192	7
TAP	68	240	4
BRK	68	288	6
TAP	69	0	2
TAP	69	48	6
TAP	69	96	4
TAP	69	144	7
TAP	69	192	0
TAP	69	240	3
BRK	69	288	1
TAP	70	0	5
TAP	70	48	1
TAP	70	96	3
TAP	70	144	0
TAP	70	192	7
TAP	70	240	4
BRK	70	288	6
BRK	71	0	1
BRK	71	0	7
BRK	71	96	2
BRK	71	96	4
BRK	71	192	0
BRK	71	192	6
BRK	71	288	3
BRK	71	288	5
BRK	72	0	0
BRK	72	0	7

T_REC_TAP	434
T_REC_BRK	42
T_REC_XTP	0
T_REC_HLD	10
T_REC_XHO	0
T_REC_STR	9
T_REC_BST	0
T_REC_XST	0
T_REC_TTP	0
T_REC_THO	0
T_REC_SLD	9
T_REC_ALL	504
T_NUM_TAP	443
T_NUM_BRK	42
T_NUM_HLD	10
T_NUM_SLD	9
T_NUM_ALL	504
T_JUDGE_TAP	485
T_JUDGE_HLD	26
T_JUDGE_SLD	9
T_JUDGE_ALL	520
TTM_EACHPAIRS	30
TTM_SCR_TAP	221500
TTM_SCR_BRK	109200
TTM_SCR_HLD	10000
TTM_SCR_SLD	13500
TTM_SCR_ALL	354200
TTM_SCR_S	339500
TTM_SCR_SS	350000
TTM_RAT_ACV	10120

