VERSION	0.00.00	1.03.00
FES_MODE	0
BPM_DEF	159.000	159.000	159.000	159.000
MET_DEF	4	4
RESOLUTION	384
CLK_DEF	384
COMPATIBLE_CODE	MA2

BPM	0	0	159.000
MET	0	0	4	4

TAP	1	0	2
TAP	1	192	1
BRK	2	0	0
TAP	3	192	0
TAP	3	192	7
TAP	3	288	0
TAP	3	288	7
TAP	4	0	0
TAP	4	96	0
TAP	4	192	2
TAP	4	288	2
TAP	5	0	7
TAP	5	96	7
TAP	5	192	5
TAP	5	288	5
TAP	6	0	1
TAP	6	96	1
TAP	6	192	3
TAP	6	288	3
TAP	7	0	6
TAP	7	96	6
HLD	7	192	4	96
TAP	8	0	0
TAP	8	96	1
TAP	8	192	2
TAP	8	288	3
TAP	9	0	7
TAP	9	96	6
TAP	9	192	5
TAP	9	288	4
TAP	10	0	1
TAP	10	96	0
TAP	10	192	7
TAP	10	288	6
TAP	11	0	7
TAP	11	96	0
HLD	11	192	1	96
TAP	12	0	0
HLD	12	96	0	96
TAP	12	288	7
TAP	13	0	1
HLD	13	96	1	96
TAP	13	288	2
TAP	14	0	6
HLD	14	96	6	96
TAP	14	288	5
TAP	15	0	3
TAP	15	96	4
TAP	15	192	3
TAP	15	288	3
TAP	15	288	4
TAP	16	0	1
HLD	16	96	0	96
TAP	16	288	7
TAP	17	0	6
HLD	17	96	7	96
TAP	17	288	0
TAP	18	0	4
TAP	18	96	3
TAP	18	192	2
TAP	18	288	1
STR	19	0	0
SI_	19	0	0	96	72	4
STR	19	192	7
SI_	19	192	7	96	72	3
TAP	20	0	1
TAP	20	96	0
TAP	20	96	1
TAP	20	192	6
TAP	20	288	6
TAP	20	288	7
TAP	21	0	0
TAP	21	0	7
TAP	21	96	1
TAP	21	96	6
TAP	21	192	2
TAP	21	192	5
HLD	21	288	3	384
HLD	21	288	4	384
TAP	23	0	1
TAP	23	96	6
TAP	23	192	0
TAP	23	288	7
TAP	24	0	2
HLD	24	96	3	96
TAP	24	288	4
TAP	24	288	5
TAP	25	0	5
HLD	25	96	4	96
TAP	25	288	2
TAP	25	288	3
TAP	26	0	2
TAP	26	96	0
TAP	26	96	7
TAP	26	192	5
TAP	26	288	0
TAP	26	288	7
HLD	27	0	0	288
HLD	27	0	7	288
TAP	28	0	1
TAP	28	96	1
STR	28	192	1
SI_	28	192	1	96	72	5
TAP	29	0	6
TAP	29	96	6
STR	29	192	6
SI_	29	192	6	96	72	2
TAP	30	0	3
TAP	30	96	3
STR	30	192	3
SI_	30	192	3	96	72	0
TAP	31	0	7
TAP	31	96	7
STR	31	192	7
SI_	31	192	7	96	72	4
TAP	32	0	2
TAP	32	96	1
TAP	32	96	3
TAP	32	192	2
TAP	33	0	6
TAP	33	96	5
TAP	33	96	7
TAP	33	192	6
TAP	34	0	5
TAP	34	96	4
TAP	34	96	6
TAP	34	192	5
TAP	35	0	1
TAP	35	96	0
TAP	35	96	2
TAP	35	192	1
TAP	36	0	1
TAP	36	96	2
TAP	36	192	3
TAP	36	288	4
TAP	37	0	7
TAP	37	96	6
TAP	37	192	5
TAP	37	288	4
TAP	38	0	6
TAP	38	96	7
TAP	38	192	0
TAP	38	288	1
TAP	39	0	4
TAP	39	96	3
TAP	39	192	2
TAP	39	288	1
STR	40	0	1
SI_	40	0	1	96	96	5
STR	41	0	4
SI_	41	0	4	96	96	0
TAP	42	0	1
TAP	42	96	1
TAP	42	192	4
TAP	42	288	4
TAP	43	0	3
TAP	43	96	3
BRK	43	192	6
TAP	44	0	0
TAP	44	0	1
TAP	44	96	0
TAP	44	96	7
TAP	44	192	6
TAP	44	192	7
TAP	45	0	4
TAP	45	0	5
TAP	45	96	3
TAP	45	96	4
TAP	45	192	2
TAP	45	192	3
HLD	45	288	2	384
TAP	47	0	5
TAP	47	96	6
TAP	47	192	7
TAP	47	288	0
HLD	48	0	0	192
HLD	48	192	4	192
TAP	49	0	2
TAP	49	96	6
TAP	49	192	2
TAP	49	288	6
TAP	50	0	2
TAP	50	0	6
TAP	50	96	1
TAP	50	96	5
TAP	50	192	0
TAP	50	192	4
TAP	50	288	3
TAP	50	288	7
TAP	51	0	0
TAP	51	96	0
STR	51	192	1
SI_	51	192	1	96	72	5
TAP	52	0	7
TAP	52	96	7
TAP	52	192	6
TAP	52	288	4
TAP	52	288	5
TAP	53	0	0
TAP	53	96	0
TAP	53	192	1
TAP	53	288	2
TAP	53	288	3
TAP	54	0	6
TAP	54	96	1
TAP	54	192	6
TAP	54	192	7
TAP	54	288	0
TAP	54	288	1
HLD	55	0	0	96
HLD	55	0	7	96
STR	55	192	0
SI_	55	192	0	96	72	4
TAP	56	0	6
TAP	56	96	5
TAP	56	192	4
TAP	56	288	2
TAP	56	288	3
TAP	57	0	1
TAP	57	96	2
TAP	57	192	3
TAP	57	288	4
TAP	57	288	5
TAP	58	0	6
TAP	58	96	7
TAP	58	192	0
TAP	58	288	1
TAP	59	0	0
TAP	59	0	1
TAP	59	96	0
TAP	59	96	7
TAP	59	192	6
TAP	59	192	7
TAP	59	288	0
TAP	59	288	7
BRK	60	0	0
BRK	60	0	1
STR	61	0	1
SI_	61	0	1	96	96	6
STR	62	0	5
SI_	62	0	5	96	96	2
TAP	63	0	0
TAP	63	96	2
TAP	63	192	4
BRK	63	288	6
STR	64	0	1
SI_	64	0	1	96	48	6
STR	64	192	5
SI_	64	192	5	96	48	2
STR	65	0	1
SI_	65	0	1	96	48	6
STR	65	192	5
SI_	65	192	5	96	48	2
STR	66	0	0
SI_	66	0	0	96	48	3
STR	66	192	4
SI_	66	192	4	96	48	7
STR	67	0	0
SCR	67	0	0	96	48	3
BRK	67	192	7
BRK	67	288	7
STR	68	0	1
SI_	68	0	1	96	48	4
STR	68	192	5
SI_	68	192	5	96	48	0
STR	69	0	1
SCR	69	0	1	96	48	4
STR	69	192	0
SCL	69	192	0	96	48	5
STR	70	0	2
SI_	70	0	2	96	48	5
STR	70	192	6
SI_	70	192	6	96	48	1
TAP	71	0	2
TAP	71	96	3
TAP	71	192	4
TAP	71	288	2
TAP	71	288	5
BRK	72	0	0
BRK	72	0	7

T_REC_TAP	203
T_REC_BRK	9
T_REC_XTP	0
T_REC_HLD	18
T_REC_XHO	0
T_REC_STR	25
T_REC_BST	0
T_REC_XST	0
T_REC_TTP	0
T_REC_THO	0
T_REC_SLD	25
T_REC_ALL	280
T_NUM_TAP	228
T_NUM_BRK	9
T_NUM_HLD	18
T_NUM_SLD	25
T_NUM_ALL	280
T_JUDGE_TAP	237
T_JUDGE_HLD	66
T_JUDGE_SLD	25
T_JUDGE_ALL	328
TTM_EACHPAIRS	42
TTM_SCR_TAP	114000
TTM_SCR_BRK	23400
TTM_SCR_HLD	18000
TTM_SCR_SLD	37500
TTM_SCR_ALL	192900
TTM_SCR_S	186250
TTM_SCR_SS	192000
TTM_RAT_ACV	10046

