VERSION	0.00.00	1.03.00
FES_MODE	0
BPM_DEF	159.000	159.000	159.000	159.000
MET_DEF	4	4
RESOLUTION	384
CLK_DEF	384
COMPATIBLE_CODE	MA2

BPM	0	0	159.000
MET	0	0	4	4

TAP	4	0	1
TAP	4	192	1
TAP	5	0	0
TAP	5	192	0
TAP	6	0	1
TAP	6	192	1
STR	7	0	0
SI_	7	0	0	96	96	3
TAP	8	0	5
TAP	8	192	5
TAP	9	0	4
TAP	9	192	4
TAP	10	0	5
TAP	10	192	5
STR	11	0	4
SI_	11	0	4	96	96	7
TAP	12	0	1
TAP	12	96	1
TAP	12	288	1
TAP	13	96	1
TAP	13	288	1
TAP	14	96	2
TAP	14	288	3
TAP	15	96	4
TAP	15	288	5
TAP	16	0	6
TAP	16	96	6
TAP	16	288	6
TAP	17	96	6
TAP	17	288	6
TAP	18	96	5
TAP	18	288	4
TAP	19	96	3
TAP	19	288	2
TAP	20	0	1
TAP	20	96	1
TAP	20	288	1
TAP	21	96	0
TAP	21	288	0
HLD	22	0	0	192
TAP	23	0	7
TAP	23	96	7
TAP	23	192	7
TAP	24	0	6
TAP	24	96	6
TAP	24	288	6
TAP	25	96	5
TAP	25	288	5
TAP	26	0	6
TAP	26	96	6
TAP	26	192	7
TAP	26	288	7
HLD	27	0	0	288
TAP	28	0	0
TAP	28	192	0
TAP	29	0	7
TAP	29	192	7
TAP	30	0	1
TAP	30	192	1
TAP	31	0	6
TAP	31	192	6
TAP	32	0	0
TAP	32	192	0
TAP	32	192	1
TAP	33	0	7
TAP	33	192	6
TAP	33	192	7
TAP	34	0	5
TAP	34	192	4
TAP	34	192	5
TAP	35	0	2
BRK	35	192	2
BRK	35	192	3
TAP	36	0	4
TAP	36	96	4
TAP	36	288	4
TAP	37	96	5
TAP	37	288	5
TAP	38	96	3
TAP	38	288	3
TAP	39	96	2
TAP	39	288	2
TAP	40	0	1
TAP	40	96	1
TAP	40	288	1
TAP	41	96	0
TAP	41	288	0
TAP	42	0	7
TAP	42	96	7
TAP	42	192	0
TAP	42	288	0
TAP	43	0	7
TAP	43	96	7
HLD	43	192	0	192
TAP	44	96	0
TAP	44	288	1
TAP	45	96	2
TAP	45	288	3
TAP	46	96	4
TAP	46	96	5
TAP	46	288	3
TAP	46	288	4
TAP	47	96	2
TAP	47	96	3
TAP	47	192	2
TAP	47	288	2
TAP	48	0	1
TAP	48	0	2
TAP	48	192	0
TAP	48	192	7
TAP	49	0	5
TAP	49	0	6
TAP	49	192	3
TAP	49	192	4
TAP	50	0	3
TAP	50	96	3
TAP	50	192	4
TAP	50	288	4
HLD	51	0	2	192
HLD	51	0	5	192
TAP	52	0	4
TAP	52	96	4
TAP	52	192	5
TAP	53	0	3
TAP	53	96	3
TAP	53	192	2
TAP	54	0	4
TAP	54	96	3
TAP	54	192	4
STR	55	0	3
SI_	55	0	3	96	96	0
TAP	56	0	6
TAP	56	96	6
TAP	56	192	6
TAP	56	192	7
TAP	57	0	1
TAP	57	96	1
TAP	57	192	0
TAP	57	192	1
TAP	58	0	7
TAP	58	96	0
TAP	58	192	0
TAP	58	192	7
STR	59	0	0
SI_	59	0	0	96	96	3
TAP	60	96	4
TAP	60	288	3
TAP	61	96	2
TAP	61	288	1
TAP	62	96	0
TAP	62	288	7
TAP	63	0	6
TAP	63	96	6
TAP	63	192	6
BRK	63	288	6
TAP	64	0	6
TAP	64	0	7
TAP	64	96	6
TAP	64	96	7
TAP	64	192	6
TAP	64	192	7
TAP	65	0	4
TAP	65	0	5
TAP	65	96	4
TAP	65	96	5
TAP	65	192	4
TAP	65	192	5
TAP	66	0	2
TAP	66	0	3
TAP	66	96	2
TAP	66	96	3
TAP	66	192	2
TAP	66	192	3
STR	67	0	1
SI_	67	0	1	96	96	5
TAP	68	0	6
TAP	68	0	7
TAP	68	96	6
TAP	68	96	7
TAP	68	192	6
TAP	68	192	7
TAP	69	0	0
TAP	69	0	1
TAP	69	96	0
TAP	69	96	1
TAP	69	192	0
TAP	69	192	1
TAP	70	0	2
TAP	70	0	3
TAP	70	96	2
TAP	70	96	3
TAP	70	192	2
TAP	70	192	3
TAP	71	0	4
TAP	71	96	5
TAP	71	192	6
TAP	71	288	7
BRK	72	0	0
BRK	72	0	7

T_REC_TAP	179
T_REC_BRK	5
T_REC_XTP	0
T_REC_HLD	5
T_REC_XHO	0
T_REC_STR	5
T_REC_BST	0
T_REC_XST	0
T_REC_TTP	0
T_REC_THO	0
T_REC_SLD	5
T_REC_ALL	199
T_NUM_TAP	184
T_NUM_BRK	5
T_NUM_HLD	5
T_NUM_SLD	5
T_NUM_ALL	199
T_JUDGE_TAP	189
T_JUDGE_HLD	22
T_JUDGE_SLD	5
T_JUDGE_ALL	216
TTM_EACHPAIRS	34
TTM_SCR_TAP	92000
TTM_SCR_BRK	13000
TTM_SCR_HLD	5000
TTM_SCR_SLD	7500
TTM_SCR_ALL	117500
TTM_SCR_S	113500
TTM_SCR_SS	117000
TTM_RAT_ACV	10042

