VERSION	0.00.00	1.03.00
FES_MODE	0
BPM_DEF	120.000	120.000	120.000	120.000
MET_DEF	4	4
RESOLUTION	384
CLK_DEF	384
COMPATIBLE_CODE	MA2

BPM	0	0	120.000
MET	0	0	4	4

TAP	2	0	1
TAP	2	192	2
TAP	3	0	3
TAP	3	192	4
TAP	3	288	4
TAP	3	288	5
TAP	3	336	3
TAP	3	336	4
TAP	4	0	2
TAP	4	0	3
TAP	4	48	3
TAP	4	48	4
TAP	4	96	4
TAP	4	96	5
TAP	4	144	5
TAP	4	144	6
TAP	4	192	6
TAP	4	192	7
TAP	4	240	0
TAP	4	240	7
TAP	4	288	0
TAP	4	288	1
TAP	4	336	1
TAP	4	336	2
TAP	5	0	0
TAP	5	24	7
TAP	5	48	6
TAP	5	72	5
TAP	5	96	4
TAP	5	120	3
TAP	5	144	2
TAP	5	168	1
BRK	5	192	0
TAP	6	0	0
TAP	6	48	1
TAP	6	48	2
TAP	6	96	0
TAP	6	144	7
TAP	6	168	6
TAP	6	216	6
TAP	6	240	5
TAP	6	288	5
TAP	6	336	4
TAP	7	0	3
TAP	7	48	1
TAP	7	48	2
TAP	7	96	3
TAP	7	144	4
TAP	7	168	5
TAP	7	216	5
TAP	7	240	6
TAP	7	288	7
TAP	7	336	0
TAP	8	0	1
TAP	8	48	2
TAP	8	48	3
TAP	8	96	1
TAP	8	144	0
TAP	8	168	7
TAP	8	216	7
TAP	8	240	6
TAP	8	288	5
TAP	8	336	4
TAP	9	0	3
TAP	9	48	1
TAP	9	48	2
TAP	9	96	3
TAP	9	144	4
TAP	9	168	5
TAP	9	216	5
TAP	9	240	6
TAP	9	288	7
TAP	9	312	6
TAP	9	336	5
TAP	9	360	6
TAP	10	0	5
TAP	10	72	0
TAP	10	120	0
TAP	10	144	1
TAP	10	168	2
TAP	10	192	1
TAP	10	264	7
TAP	10	312	7
TAP	10	336	6
TAP	10	360	5
TAP	11	0	0
TAP	11	24	1
TAP	11	48	2
TAP	11	72	3
TAP	11	96	7
TAP	11	120	6
TAP	11	144	5
TAP	11	168	4
BRK	11	192	3
HLD	11	264	0	72
TAP	11	336	1
TAP	12	0	2
TAP	12	48	0
TAP	12	96	0
TAP	12	96	7
TAP	12	144	6
HLD	12	168	5	72
TAP	12	240	4
TAP	12	288	3
TAP	12	336	5
HLD	12	360	6	72
TAP	13	48	7
TAP	13	96	0
TAP	13	144	1
TAP	13	168	1
TAP	13	264	0
TAP	13	312	3
TAP	13	336	2
TAP	13	360	1
TAP	14	0	0
TAP	14	72	4
TAP	14	120	4
TAP	14	144	5
TAP	14	168	6
TAP	14	192	7
TAP	14	264	3
TAP	14	312	3
TAP	14	336	2
TAP	14	360	1
TAP	15	0	4
TAP	15	24	5
TAP	15	48	6
TAP	15	72	7
TAP	15	96	3
TAP	15	120	2
TAP	15	144	1
TAP	15	168	0
BRK	15	192	7
HLD	15	264	7	72
TAP	15	336	0
TAP	16	0	1
TAP	16	48	2
TAP	16	96	3
TAP	16	96	4
TAP	16	144	2
HLD	16	168	1	72
TAP	16	240	0
TAP	16	288	7
TAP	16	336	6
HLD	16	360	5	72
TAP	17	48	4
TAP	17	96	5
TAP	17	144	7
TAP	17	168	7
TAP	17	288	0
TAP	17	336	2
TAP	18	0	4
TAP	18	48	6
TAP	18	72	6
TAP	18	120	4
TAP	18	144	3
TAP	18	168	2
TAP	18	192	1
TAP	18	288	0
TAP	18	336	7
TAP	19	0	6
TAP	19	48	5
TAP	19	72	5
TAP	19	120	4
TAP	19	144	3
TAP	19	168	2
TAP	19	192	1
TAP	19	288	7
TAP	19	336	5
TAP	20	0	3
TAP	20	48	1
TAP	20	72	1
TAP	20	120	3
TAP	20	144	4
TAP	20	168	5
TAP	20	192	6
TAP	20	288	7
TAP	20	336	0
TAP	21	0	1
TAP	21	48	2
TAP	21	72	2
TAP	21	120	3
TAP	21	144	4
TAP	21	168	5
TAP	21	192	6
TAP	21	264	1
TAP	21	312	1
TAP	21	336	2
TAP	21	360	3
TAP	22	0	4
TAP	22	72	2
TAP	22	120	1
TAP	22	144	0
TAP	22	168	7
TAP	22	192	6
TAP	22	264	7
TAP	22	312	0
TAP	22	336	1
TAP	22	360	2
TAP	23	0	3
TAP	23	24	2
TAP	23	48	1
TAP	23	72	0
TAP	23	96	7
TAP	23	120	6
TAP	23	144	5
TAP	23	168	4
TAP	23	192	3
HLD	23	264	5	72
TAP	23	336	6
TAP	24	0	7
TAP	24	48	5
TAP	24	96	3
TAP	24	144	1
TAP	24	168	1
TAP	24	240	2
TAP	24	288	3
TAP	24	336	4
TAP	25	0	5
TAP	25	0	6
TAP	25	96	0
TAP	25	96	7
TAP	25	168	0
TAP	25	168	1
BRK	25	288	3
BRK	25	288	4
BRK	25	336	2
BRK	25	336	5
BRK	26	0	1
BRK	26	0	6
HLD	26	96	7	48
TAP	26	144	6
TAP	26	168	6
TAP	26	240	0
TAP	26	288	1
TAP	26	336	2
TAP	27	0	3
TAP	27	48	4
TAP	27	96	5
TAP	27	144	6
TAP	27	168	6
TAP	27	240	7
BRK	27	288	0
BRK	27	288	7
BRK	27	336	3
BRK	27	336	4
BRK	28	0	1
BRK	28	0	6
HLD	28	96	0	48
TAP	28	144	1
TAP	28	168	1
TAP	28	240	7
TAP	28	288	6
TAP	28	336	5
TAP	28	360	5
TAP	29	48	4
TAP	29	96	6
TAP	29	144	0
TAP	29	168	0
BRK	29	264	1
BRK	29	264	2
BRK	29	336	3
BRK	29	336	4
BRK	30	0	1
BRK	30	0	6
HLD	30	96	7	48
TAP	30	144	6
TAP	30	168	6
TAP	30	240	7
STR	30	288	2
SI_	30	288	2	96	192	5
STR	30	288	6
SI_	30	288	6	96	192	1
BRK	31	288	3
BRK	31	288	4
BRK	31	336	2
BRK	31	336	5
BRK	32	0	1
BRK	32	0	6
HLD	32	96	0	48
TAP	32	144	1
TAP	32	168	1
TAP	32	240	0
TAP	32	288	6
TAP	32	336	5
TAP	32	360	5
TAP	33	48	7
TAP	33	96	0
TAP	33	144	1
TAP	33	168	1
HLD	33	264	0	48
TAP	33	312	7
TAP	33	336	7
TAP	33	360	0
TAP	34	0	2
TAP	34	24	1
TAP	34	48	3
TAP	34	72	2
TAP	34	96	5
TAP	34	120	4
TAP	34	144	6
TAP	34	168	5
TAP	34	192	7
TAP	34	216	4
TAP	34	240	6
TAP	34	264	5
TAP	34	288	7
TAP	34	312	2
TAP	34	336	0
TAP	34	360	1
TAP	35	0	7
TAP	35	24	5
TAP	35	48	6
TAP	35	72	4
TAP	35	96	5
TAP	35	120	3
TAP	35	144	4
TAP	35	168	2
TAP	35	192	3
TAP	35	216	2
TAP	35	240	3
TAP	35	264	2
TAP	35	288	4
TAP	35	312	1
TAP	35	336	4
TAP	35	360	1
TAP	36	0	0
TAP	36	24	1
TAP	36	48	0
TAP	36	72	1
TAP	36	96	7
TAP	36	120	2
TAP	36	144	7
TAP	36	168	2
TAP	36	192	6
TAP	36	216	7
TAP	36	240	6
TAP	36	264	7
TAP	36	288	5
TAP	36	312	0
TAP	36	336	5
TAP	36	360	0
TAP	37	0	5
TAP	37	24	4
TAP	37	48	5
TAP	37	72	4
TAP	37	96	6
TAP	37	120	3
TAP	37	144	6
TAP	37	168	3
TAP	37	192	4
HLD	37	264	0	48
TAP	37	312	1
TAP	37	336	1
TAP	37	360	2
TAP	38	0	0
TAP	38	24	3
TAP	38	48	1
TAP	38	72	2
TAP	38	96	0
TAP	38	120	5
TAP	38	144	7
TAP	38	168	6
TAP	38	192	2
TAP	38	216	7
TAP	38	240	1
TAP	38	264	0
TAP	38	288	2
TAP	38	312	6
TAP	38	336	1
TAP	38	360	5
TAP	39	0	2
TAP	39	24	0
TAP	39	48	3
TAP	39	72	1
TAP	39	96	2
TAP	39	120	6
TAP	39	144	0
TAP	39	168	4
TAP	39	192	1
TAP	39	216	0
TAP	39	240	1
TAP	39	264	2
TAP	39	288	1
TAP	39	312	0
TAP	39	336	1
TAP	39	360	2
TAP	40	0	1
TAP	40	24	2
TAP	40	48	3
TAP	40	72	2
TAP	40	96	1
TAP	40	120	2
TAP	40	144	3
TAP	40	168	2
TAP	40	192	5
TAP	40	216	4
TAP	40	240	5
TAP	40	264	6
TAP	40	288	5
TAP	40	312	4
TAP	40	336	5
TAP	40	360	6
TAP	41	0	5
TAP	41	24	6
TAP	41	48	7
TAP	41	72	6
TAP	41	96	5
TAP	41	120	6
TAP	41	144	7
TAP	41	168	6
BRK	41	192	5
TAP	41	264	7
TAP	41	312	6
TAP	41	336	5
TAP	41	360	6
TAP	42	0	7
TAP	42	24	0
TAP	42	48	7
TAP	42	72	0
TAP	42	96	7
TAP	42	120	4
TAP	42	144	7
TAP	42	168	4
TAP	42	192	7
TAP	42	216	1
TAP	42	240	7
TAP	42	264	1
TAP	42	288	3
TAP	42	312	1
TAP	42	336	3
TAP	42	360	1
TAP	43	0	6
TAP	43	24	1
TAP	43	48	6
TAP	43	72	1
TAP	43	96	6
TAP	43	120	4
TAP	43	144	5
TAP	43	168	2
TAP	43	192	3
TAP	43	240	3
HLD	43	264	3	48
TAP	43	312	2
TAP	43	336	3
TAP	43	360	2
TAP	44	0	3
TAP	44	24	4
TAP	44	48	3
TAP	44	72	4
TAP	44	96	3
TAP	44	120	5
TAP	44	144	3
TAP	44	168	5
TAP	44	192	7
TAP	44	216	5
TAP	44	240	7
TAP	44	264	5
TAP	44	288	7
TAP	44	312	3
TAP	44	336	7
TAP	44	360	3
TAP	45	0	2
TAP	45	24	3
TAP	45	48	2
TAP	45	72	3
TAP	45	96	2
TAP	45	120	5
TAP	45	144	2
TAP	45	168	5
TAP	45	192	3
TAP	45	192	4
HLD	45	264	0	48
TAP	45	312	1
TAP	45	336	1
TAP	45	360	2
TAP	46	0	0
TAP	46	24	3
TAP	46	48	1
TAP	46	72	2
TAP	46	96	0
TAP	46	120	5
TAP	46	144	7
TAP	46	168	6
TAP	46	192	2
TAP	46	216	7
TAP	46	240	1
TAP	46	264	0
TAP	46	288	2
TAP	46	312	6
TAP	46	336	1
TAP	46	360	5
TAP	47	0	2
TAP	47	24	0
TAP	47	48	3
TAP	47	72	1
TAP	47	96	2
TAP	47	120	6
TAP	47	144	0
TAP	47	168	4
TAP	47	192	0
TAP	47	216	1
TAP	47	240	2
TAP	47	264	3
TAP	47	288	4
TAP	47	312	5
TAP	47	336	6
TAP	47	360	7
TAP	48	0	0
TAP	48	24	7
TAP	48	48	1
TAP	48	72	6
TAP	48	96	0
TAP	48	120	5
TAP	48	144	7
TAP	48	168	4
TAP	48	192	6
TAP	48	216	6
TAP	48	240	0
TAP	48	264	0
TAP	48	288	2
TAP	48	312	2
TAP	48	336	4
TAP	48	360	4
TAP	49	0	7
TAP	49	24	6
TAP	49	48	5
TAP	49	72	4
TAP	49	96	3
TAP	49	120	2
TAP	49	144	1
TAP	49	168	0
BRK	49	192	7
STR	50	0	2
SCL	50	0	2	96	48	7
STR	50	0	7
SCL	50	0	7	96	48	4
STR	50	192	4
SCR	50	192	4	96	48	7
STR	50	192	7
SCR	50	192	7	96	48	2
TAP	51	0	0
TAP	51	24	7
TAP	51	48	0
TAP	51	72	6
TAP	51	96	1
TAP	51	120	6
TAP	51	144	2
TAP	51	168	7
BRK	51	192	0
TAP	52	0	2
TAP	52	0	5
TAP	52	48	2
TAP	52	48	5
TAP	52	96	2
TAP	52	96	4
TAP	52	144	0
TAP	52	144	4
HLD	52	192	0	96
HLD	52	192	5	96
STR	53	0	0
SCR	53	0	0	96	48	3
STR	53	0	5
SCR	53	0	5	96	48	0
STR	53	192	0
SCL	53	192	0	96	48	5
STR	53	192	3
SCL	53	192	3	96	48	0
TAP	54	0	7
TAP	54	24	0
TAP	54	48	7
TAP	54	72	1
TAP	54	96	6
TAP	54	120	1
TAP	54	144	5
TAP	54	168	0
BRK	54	192	7
TAP	55	0	2
TAP	55	0	5
TAP	55	48	2
TAP	55	48	5
TAP	55	96	3
TAP	55	96	5
TAP	55	144	3
TAP	55	144	7
HLD	55	192	2	96
HLD	55	192	7	96
STR	56	0	2
SI_	56	0	2	96	48	7
STR	56	0	4
SI_	56	0	4	96	48	7
STR	56	192	3
SI_	56	192	3	96	48	0
STR	56	192	5
SI_	56	192	5	96	48	0
STR	57	0	7
SCR	57	0	7	96	96	2
STR	57	96	2
SCR	57	96	2	96	96	5
STR	57	192	5
SCR	57	192	5	96	96	0
TAP	57	288	0
BRK	58	0	1
TAP	58	96	3
TAP	58	96	4
TAP	58	168	1
TAP	58	168	6
HLD	58	192	1	192
HLD	58	192	6	192

T_REC_TAP	522
T_REC_BRK	32
T_REC_XTP	0
T_REC_HLD	21
T_REC_XHO	0
T_REC_STR	17
T_REC_BST	0
T_REC_XST	0
T_REC_TTP	0
T_REC_THO	0
T_REC_SLD	17
T_REC_ALL	609
T_NUM_TAP	539
T_NUM_BRK	32
T_NUM_HLD	21
T_NUM_SLD	17
T_NUM_ALL	609
T_JUDGE_TAP	571
T_JUDGE_HLD	38
T_JUDGE_SLD	17
T_JUDGE_ALL	626
TTM_EACHPAIRS	52
TTM_SCR_TAP	269500
TTM_SCR_BRK	83200
TTM_SCR_HLD	21000
TTM_SCR_SLD	25500
TTM_SCR_ALL	399200
TTM_SCR_S	384150
TTM_SCR_SS	396000
TTM_RAT_ACV	10080

