VERSION	0.00.00	1.03.00
FES_MODE	0
BPM_DEF	120.000	120.000	120.000	120.000
MET_DEF	4	4
RESOLUTION	384
CLK_DEF	384
COMPATIBLE_CODE	MA2

BPM	0	0	120.000
MET	0	0	4	4

TAP	2	0	0
TAP	2	48	0
TAP	2	96	7
TAP	2	144	7
TAP	2	192	1
TAP	2	240	1
TAP	2	288	6
TAP	2	336	6
TAP	3	0	2
TAP	3	48	3
TAP	3	96	4
TAP	3	144	5
TAP	3	192	6
TAP	3	192	7
TAP	3	288	2
TAP	3	288	3
TAP	3	336	2
TAP	3	336	3
TAP	4	0	2
TAP	4	48	3
TAP	4	96	1
TAP	4	144	4
TAP	4	192	0
TAP	4	240	5
TAP	4	288	7
TAP	4	336	6
HLD	5	0	0	192
BRK	5	192	1
HLD	6	0	1	96
HLD	6	96	2	72
TAP	6	168	3
TAP	6	216	4
TAP	6	288	1
TAP	6	288	6
HLD	7	0	6	96
HLD	7	96	5	72
TAP	7	168	4
TAP	7	216	3
TAP	7	288	1
TAP	7	288	6
HLD	8	0	0	96
HLD	8	96	7	72
TAP	8	168	3
TAP	8	216	4
TAP	8	288	1
TAP	8	288	6
HLD	9	0	4	96
HLD	9	96	3	72
TAP	9	168	4
TAP	9	216	3
TAP	9	288	1
TAP	9	336	0
TAP	10	0	2
TAP	10	96	6
TAP	10	144	7
TAP	10	192	5
TAP	10	288	2
TAP	10	336	1
TAP	11	0	0
TAP	11	48	7
TAP	11	96	6
TAP	11	144	5
TAP	11	192	3
TAP	11	192	4
TAP	11	288	1
TAP	11	336	0
TAP	12	0	7
TAP	12	48	6
HLD	12	96	5	72
TAP	12	168	6
TAP	12	240	1
TAP	12	240	6
HLD	12	288	2	72
TAP	12	360	1
TAP	13	48	1
TAP	13	48	6
HLD	13	96	7	72
TAP	13	168	0
TAP	13	288	3
TAP	13	336	4
TAP	14	0	2
TAP	14	96	4
TAP	14	144	3
TAP	14	192	5
TAP	14	288	6
TAP	14	336	5
TAP	15	0	4
TAP	15	48	3
TAP	15	96	2
TAP	15	144	1
TAP	15	192	0
TAP	15	192	7
TAP	15	288	6
TAP	15	336	7
TAP	16	0	0
TAP	16	48	1
HLD	16	96	2	72
TAP	16	168	1
TAP	16	240	1
TAP	16	240	6
HLD	16	288	5	72
TAP	16	360	6
TAP	17	48	1
TAP	17	48	6
HLD	17	96	0	72
TAP	17	168	7
TAP	17	288	0
TAP	17	336	1
TAP	18	0	2
TAP	18	48	1
TAP	18	72	1
TAP	18	144	0
STR	18	192	7
SI_	18	192	7	96	48	4
TAP	18	288	0
TAP	18	336	1
TAP	19	0	2
TAP	19	48	4
TAP	19	72	4
TAP	19	144	7
STR	19	192	0
SI_	19	192	0	96	48	3
TAP	19	288	4
TAP	19	336	5
TAP	20	0	6
TAP	20	48	0
TAP	20	72	0
TAP	20	144	7
STR	20	192	7
SCL	20	192	7	96	48	4
TAP	20	288	3
TAP	20	336	2
TAP	21	0	1
TAP	21	48	7
TAP	21	72	7
TAP	21	144	1
TAP	21	192	0
STR	21	288	0
SI_	21	288	0	96	96	4
TAP	21	336	0
STR	22	96	7
SI_	22	96	7	96	96	3
TAP	22	144	7
TAP	22	288	1
TAP	22	336	2
TAP	23	0	3
TAP	23	48	4
TAP	23	96	5
TAP	23	144	6
TAP	23	192	0
TAP	23	192	7
TAP	23	288	1
TAP	23	336	0
TAP	24	0	7
TAP	24	48	6
TAP	24	96	5
TAP	24	144	3
TAP	24	168	3
TAP	24	240	1
TAP	24	240	6
TAP	24	288	0
TAP	24	336	7
HLD	25	0	0	96
HLD	25	96	1	72
BRK	25	168	2
TAP	25	288	3
TAP	25	288	4
TAP	25	336	2
TAP	25	336	5
BRK	26	0	1
BRK	26	0	6
TAP	26	96	2
TAP	26	144	1
TAP	26	168	1
TAP	26	240	0
TAP	26	288	7
TAP	26	336	6
TAP	27	0	5
TAP	27	48	4
TAP	27	96	3
TAP	27	144	2
TAP	27	168	2
TAP	27	240	1
TAP	27	288	3
TAP	27	288	4
TAP	27	336	2
TAP	27	336	5
BRK	28	0	1
BRK	28	0	6
TAP	28	96	2
TAP	28	96	3
TAP	28	144	5
TAP	28	168	5
TAP	28	240	6
TAP	28	288	7
TAP	28	336	0
TAP	28	360	0
TAP	29	48	1
TAP	29	96	2
TAP	29	144	1
TAP	29	168	1
TAP	29	264	3
TAP	29	264	4
TAP	29	336	2
TAP	29	336	5
BRK	30	0	1
BRK	30	0	6
TAP	30	96	0
TAP	30	144	0
TAP	30	168	0
TAP	30	240	7
TAP	30	288	5
TAP	30	336	3
TAP	31	0	1
TAP	31	48	0
TAP	31	96	6
TAP	31	144	4
TAP	31	168	4
TAP	31	240	2
TAP	31	288	3
TAP	31	288	4
TAP	31	336	2
TAP	31	336	5
BRK	32	0	1
BRK	32	0	6
TAP	32	96	0
TAP	32	144	3
TAP	32	168	3
TAP	32	240	6
TAP	32	288	7
TAP	32	336	4
TAP	32	360	4
TAP	33	48	1
TAP	33	96	6
TAP	33	144	0
TAP	33	168	0
TAP	34	0	0
TAP	34	48	0
TAP	34	96	1
TAP	34	144	1
TAP	34	192	2
TAP	34	240	2
TAP	34	288	3
TAP	34	336	3
TAP	35	0	7
TAP	35	48	7
TAP	35	96	6
TAP	35	144	6
TAP	35	192	5
TAP	35	240	5
TAP	35	288	4
TAP	35	336	4
TAP	36	0	1
TAP	36	48	2
TAP	36	96	3
TAP	36	144	4
TAP	36	192	0
TAP	36	240	7
TAP	36	288	6
TAP	36	336	5
TAP	37	0	4
TAP	37	48	3
TAP	37	96	2
TAP	37	144	1
TAP	37	192	0
TAP	37	192	7
BRK	37	288	0
TAP	38	0	0
TAP	38	48	1
TAP	38	96	2
TAP	38	144	3
TAP	38	192	4
TAP	38	240	5
TAP	38	288	6
TAP	38	336	7
TAP	39	0	0
TAP	39	48	2
TAP	39	96	4
TAP	39	144	6
TAP	39	192	7
TAP	39	240	5
TAP	39	288	3
TAP	39	336	1
TAP	40	0	7
TAP	40	48	6
TAP	40	96	5
TAP	40	144	4
TAP	40	192	3
TAP	40	240	2
TAP	40	288	1
TAP	40	336	0
TAP	41	0	7
TAP	41	48	7
TAP	41	96	6
TAP	41	144	6
TAP	41	192	6
TAP	41	192	7
BRK	41	288	0
HLD	42	0	0	96
HLD	42	96	4	96
HLD	42	192	2	96
HLD	42	288	6	96
HLD	43	0	1	96
HLD	43	96	5	96
TAP	43	192	3
HLD	43	288	7	96
HLD	44	0	0	96
HLD	44	96	2	96
HLD	44	192	4	96
TAP	44	288	6
TAP	45	0	0
TAP	45	48	7
TAP	45	96	0
TAP	45	144	7
BRK	45	192	0
BRK	45	192	7
TAP	46	0	0
TAP	46	48	1
TAP	46	96	2
TAP	46	144	3
TAP	46	192	2
TAP	46	240	1
TAP	46	288	0
TAP	46	336	7
TAP	47	0	6
TAP	47	48	5
TAP	47	96	4
TAP	47	144	3
TAP	47	192	4
TAP	47	240	5
TAP	47	288	6
TAP	47	336	7
TAP	48	0	1
TAP	48	48	0
TAP	48	96	2
TAP	48	144	7
TAP	48	192	3
TAP	48	240	6
TAP	48	288	4
TAP	48	336	5
TAP	49	0	3
TAP	49	48	4
TAP	49	96	3
TAP	49	144	4
TAP	49	192	2
TAP	49	192	5
BRK	49	288	0
BRK	49	288	7
STR	50	0	0
SI_	50	0	0	96	48	3
STR	50	192	7
SI_	50	192	7	96	48	4
TAP	51	0	3
TAP	51	48	3
TAP	51	96	4
TAP	51	144	4
TAP	51	192	1
TAP	51	192	6
BRK	51	288	1
BRK	51	288	6
TAP	52	0	0
TAP	52	0	4
TAP	52	48	1
TAP	52	48	5
TAP	52	96	2
TAP	52	96	6
TAP	52	144	3
TAP	52	144	7
TAP	52	192	0
TAP	52	192	4
TAP	52	288	3
TAP	52	288	7
STR	53	0	7
SI_	53	0	7	96	48	2
STR	53	192	0
SI_	53	192	0	96	48	5
TAP	54	0	4
TAP	54	48	4
TAP	54	96	3
TAP	54	144	3
TAP	54	192	1
TAP	54	192	6
BRK	54	288	1
BRK	54	288	6
TAP	55	0	3
TAP	55	0	7
TAP	55	48	2
TAP	55	48	6
TAP	55	96	1
TAP	55	96	5
TAP	55	144	0
TAP	55	144	4
TAP	55	192	3
TAP	55	192	7
TAP	55	288	0
TAP	55	288	4
HLD	56	0	0	144
TAP	56	144	2
HLD	56	192	2	144
TAP	56	336	4
HLD	57	0	4	144
TAP	57	144	6
TAP	57	192	7
TAP	57	240	0
TAP	57	288	1
TAP	57	336	2
TAP	58	0	3
TAP	58	96	3
TAP	58	96	4
TAP	58	168	1
TAP	58	168	6
BRK	58	192	1
BRK	58	192	6

T_REC_TAP	343
T_REC_BRK	22
T_REC_XTP	0
T_REC_HLD	30
T_REC_XHO	0
T_REC_STR	9
T_REC_BST	0
T_REC_XST	0
T_REC_TTP	0
T_REC_THO	0
T_REC_SLD	9
T_REC_ALL	413
T_NUM_TAP	352
T_NUM_BRK	22
T_NUM_HLD	30
T_NUM_SLD	9
T_NUM_ALL	413
T_JUDGE_TAP	374
T_JUDGE_HLD	65
T_JUDGE_SLD	9
T_JUDGE_ALL	448
TTM_EACHPAIRS	51
TTM_SCR_TAP	176000
TTM_SCR_BRK	57200
TTM_SCR_HLD	30000
TTM_SCR_SLD	13500
TTM_SCR_ALL	276700
TTM_SCR_S	266300
TTM_SCR_SS	274500
TTM_RAT_ACV	10080

