VERSION	0.00.00	1.03.00
FES_MODE	0
BPM_DEF	120.000	120.000	120.000	120.000
MET_DEF	4	4
RESOLUTION	384
CLK_DEF	384
COMPATIBLE_CODE	MA2

BPM	0	0	120.000
MET	0	0	4	4

TAP	2	0	0
TAP	2	96	0
TAP	2	192	7
TAP	2	288	7
TAP	3	0	0
TAP	3	96	7
TAP	3	192	0
TAP	3	192	7
TAP	4	0	1
TAP	4	96	1
TAP	4	192	6
TAP	4	288	6
TAP	5	0	2
TAP	5	0	5
TAP	5	192	3
TAP	5	192	4
TAP	6	0	2
TAP	6	96	3
TAP	6	192	2
TAP	6	288	3
TAP	7	0	2
TAP	7	96	3
TAP	7	192	2
TAP	7	288	3
TAP	8	0	5
TAP	8	96	4
TAP	8	192	5
TAP	8	288	4
TAP	9	0	5
TAP	9	96	4
TAP	9	192	5
TAP	9	288	4
TAP	10	0	5
TAP	10	192	6
TAP	11	0	7
TAP	11	96	0
TAP	11	192	0
TAP	11	192	1
STR	12	0	0
SI_	12	0	0	96	120	3
STR	13	0	7
SI_	13	0	7	96	120	4
TAP	14	0	2
TAP	14	192	1
TAP	15	0	0
TAP	15	96	7
TAP	15	192	6
TAP	15	192	7
STR	16	0	6
SI_	16	0	6	96	120	2
STR	17	0	1
SI_	17	0	1	96	120	5
TAP	18	0	0
TAP	18	96	0
HLD	18	192	1	96
TAP	19	0	7
TAP	19	96	7
HLD	19	192	6	96
TAP	20	0	2
TAP	20	96	2
HLD	20	192	3	96
TAP	21	0	5
TAP	21	96	5
HLD	21	192	4	96
TAP	22	0	3
TAP	22	192	2
TAP	23	0	1
TAP	23	96	0
TAP	23	192	0
TAP	23	192	7
TAP	24	0	7
TAP	24	96	7
TAP	24	192	6
TAP	24	288	6
TAP	25	0	5
TAP	25	96	5
TAP	25	192	3
TAP	25	192	4
TAP	25	288	3
TAP	25	288	4
BRK	26	0	1
BRK	26	0	6
TAP	26	96	7
TAP	26	192	0
TAP	26	288	1
HLD	27	0	2	96
HLD	27	96	3	96
TAP	27	192	4
TAP	27	288	3
TAP	27	288	4
BRK	28	0	1
BRK	28	0	6
TAP	28	96	0
TAP	28	192	7
TAP	28	288	6
HLD	29	0	5	96
HLD	29	96	4	96
TAP	29	192	3
TAP	29	288	3
TAP	29	288	4
BRK	30	0	1
BRK	30	0	6
TAP	30	96	0
TAP	30	192	7
STR	30	288	0
SI_	30	288	0	96	120	3
STR	30	288	7
SI_	30	288	7	96	120	4
TAP	31	288	3
TAP	31	288	4
BRK	32	0	1
BRK	32	0	6
TAP	32	96	7
TAP	32	192	0
TAP	32	288	1
TAP	33	0	2
TAP	33	96	3
TAP	33	192	3
TAP	33	192	4
TAP	34	0	3
TAP	34	96	2
TAP	34	192	1
TAP	34	288	0
TAP	35	0	7
TAP	35	96	6
TAP	35	192	7
TAP	35	240	6
TAP	35	288	7
TAP	35	336	6
TAP	36	0	7
TAP	36	96	0
TAP	36	192	1
TAP	36	288	2
TAP	37	0	3
TAP	37	96	4
TAP	37	192	3
TAP	37	192	4
TAP	38	0	4
TAP	38	96	5
TAP	38	192	6
TAP	38	288	7
TAP	39	0	0
TAP	39	96	1
TAP	39	192	0
TAP	39	240	1
TAP	39	288	0
TAP	39	336	1
TAP	40	0	0
TAP	40	96	7
TAP	40	192	6
TAP	40	288	5
TAP	41	0	4
TAP	41	96	3
TAP	41	192	3
TAP	41	192	4
HLD	42	0	3	96
HLD	42	96	2	96
TAP	42	192	1
TAP	42	288	0
HLD	43	0	7	96
HLD	43	96	6	96
TAP	43	192	5
TAP	43	288	5
HLD	44	0	5	96
HLD	44	96	6	96
TAP	44	192	7
TAP	44	288	0
HLD	45	0	1	96
TAP	45	96	2
TAP	45	192	2
HLD	46	0	2	96
HLD	46	96	1	96
TAP	46	192	0
TAP	46	288	7
HLD	47	0	6	96
HLD	47	96	5	96
TAP	47	192	4
TAP	47	288	4
HLD	48	0	4	96
HLD	48	96	5	96
TAP	48	192	6
TAP	48	288	7
HLD	49	0	0	96
HLD	49	96	1	96
TAP	49	192	2
HLD	50	0	0	96
BRK	50	96	1
HLD	50	192	7	96
BRK	50	288	6
TAP	51	0	0
TAP	51	48	7
TAP	51	96	0
TAP	51	144	7
BRK	51	192	0
TAP	52	0	1
TAP	52	96	1
HLD	52	192	2	96
HLD	53	0	3	96
BRK	53	96	2
HLD	53	192	4	96
BRK	53	288	5
TAP	54	0	3
TAP	54	48	4
TAP	54	96	3
TAP	54	144	4
BRK	54	192	3
TAP	55	0	5
TAP	55	96	5
HLD	55	192	6	96
TAP	56	0	0
TAP	56	144	1
TAP	56	192	7
TAP	56	336	6
TAP	57	0	0
TAP	57	144	1
TAP	57	192	7
TAP	57	240	6
TAP	57	288	0
TAP	57	336	1
TAP	58	0	0
TAP	58	0	7
TAP	58	96	3
TAP	58	96	4
HLD	58	192	1	192
HLD	58	192	6	192

T_REC_TAP	168
T_REC_BRK	14
T_REC_XTP	0
T_REC_HLD	31
T_REC_XHO	0
T_REC_STR	6
T_REC_BST	0
T_REC_XST	0
T_REC_TTP	0
T_REC_THO	0
T_REC_SLD	6
T_REC_ALL	225
T_NUM_TAP	174
T_NUM_BRK	14
T_NUM_HLD	31
T_NUM_SLD	6
T_NUM_ALL	225
T_JUDGE_TAP	188
T_JUDGE_HLD	66
T_JUDGE_SLD	6
T_JUDGE_ALL	260
TTM_EACHPAIRS	22
TTM_SCR_TAP	87000
TTM_SCR_BRK	36400
TTM_SCR_HLD	31000
TTM_SCR_SLD	9000
TTM_SCR_ALL	163400
TTM_SCR_S	157150
TTM_SCR_SS	162000
TTM_RAT_ACV	10086

