VERSION	0.00.00	1.03.00
FES_MODE	0
BPM_DEF	120.000	120.000	120.000	120.000
MET_DEF	4	4
RESOLUTION	384
CLK_DEF	384
COMPATIBLE_CODE	MA2

BPM	0	0	120.000
MET	0	0	4	4

TAP	2	0	3
TAP	2	192	3
TAP	3	0	4
TAP	3	192	4
TAP	4	0	3
TAP	4	192	3
HLD	5	0	4	192
TAP	6	0	3
TAP	6	192	3
TAP	7	0	2
TAP	7	192	2
TAP	8	0	4
TAP	8	192	4
TAP	9	0	5
TAP	9	192	5
TAP	10	0	6
TAP	10	192	6
HLD	11	0	7	192
STR	12	0	7
SI_	12	0	7	96	192	3
TAP	13	0	2
TAP	13	192	2
TAP	14	0	1
TAP	14	192	1
HLD	15	0	0	192
STR	16	0	0
SI_	16	0	0	96	192	4
TAP	17	0	5
TAP	17	192	5
TAP	18	0	3
TAP	18	96	3
TAP	18	192	3
HLD	19	0	2	192
TAP	20	0	4
TAP	20	96	4
TAP	20	192	4
HLD	21	0	5	192
TAP	22	0	3
TAP	22	192	3
TAP	23	0	2
TAP	23	192	2
TAP	24	0	1
TAP	24	96	1
TAP	24	192	0
TAP	24	288	0
TAP	25	0	7
TAP	25	96	7
TAP	25	192	0
TAP	25	192	7
TAP	26	0	0
TAP	26	0	7
TAP	26	192	0
TAP	27	0	1
TAP	27	96	1
TAP	27	192	2
TAP	28	0	0
TAP	28	0	7
TAP	28	192	7
TAP	29	0	6
TAP	29	96	6
TAP	29	192	5
TAP	30	0	0
TAP	30	0	7
TAP	30	192	1
TAP	31	0	2
TAP	31	96	2
TAP	31	192	3
TAP	32	0	0
TAP	32	0	7
TAP	32	192	6
TAP	33	0	5
TAP	33	96	5
TAP	33	192	4
TAP	34	0	4
TAP	34	192	5
TAP	35	0	6
TAP	35	192	7
TAP	36	0	0
TAP	36	192	1
TAP	37	0	2
BRK	37	192	3
HLD	38	0	2	192
HLD	39	0	5	192
STR	40	0	0
SI_	40	0	0	96	192	4
STR	41	0	7
SI_	41	0	7	96	192	3
TAP	42	0	2
TAP	42	192	3
TAP	43	0	2
TAP	43	192	3
TAP	44	0	4
TAP	44	192	5
TAP	45	0	4
TAP	45	192	4
TAP	45	192	5
TAP	46	0	6
TAP	46	192	7
TAP	47	0	6
TAP	47	192	7
TAP	48	0	0
TAP	48	192	1
TAP	49	0	0
TAP	49	192	0
TAP	49	192	1
HLD	50	0	0	96
HLD	50	192	7	96
TAP	51	0	0
TAP	51	96	7
TAP	51	192	0
STR	52	0	7
SI_	52	0	7	96	192	4
HLD	53	0	3	96
HLD	53	192	4	96
TAP	54	0	3
TAP	54	96	4
TAP	54	192	3
TAP	55	0	2
TAP	55	192	2
TAP	56	0	3
TAP	56	192	4
TAP	57	0	5
TAP	57	192	6
TAP	58	0	7
BRK	58	192	0
BRK	58	192	7

T_REC_TAP	102
T_REC_BRK	3
T_REC_XTP	0
T_REC_HLD	11
T_REC_XHO	0
T_REC_STR	5
T_REC_BST	0
T_REC_XST	0
T_REC_TTP	0
T_REC_THO	0
T_REC_SLD	5
T_REC_ALL	126
T_NUM_TAP	107
T_NUM_BRK	3
T_NUM_HLD	11
T_NUM_SLD	5
T_NUM_ALL	126
T_JUDGE_TAP	110
T_JUDGE_HLD	36
T_JUDGE_SLD	5
T_JUDGE_ALL	151
TTM_EACHPAIRS	8
TTM_SCR_TAP	53500
TTM_SCR_BRK	7800
TTM_SCR_HLD	11000
TTM_SCR_SLD	7500
TTM_SCR_ALL	79800
TTM_SCR_S	77150
TTM_SCR_SS	79500
TTM_RAT_ACV	10037

