VERSION	0.00.00	1.03.00
FES_MODE	0
BPM_DEF	160.000	160.000	160.000	160.000
MET_DEF	4	4
RESOLUTION	384
CLK_DEF	384
COMPATIBLE_CODE	MA2

BPM	0	0	160.000
MET	0	0	4	4

STR	3	0	3
SI_	3	0	3	96	192	7
HLD	5	0	7	768
STR	7	0	6
SI_	7	0	6	96	192	2
HLD	9	0	3	768
TAP	11	0	0
TAP	11	96	0
TAP	11	192	7
TAP	11	288	7
TAP	12	0	6
TAP	12	96	6
TAP	12	192	5
TAP	12	288	5
TAP	13	0	4
TAP	13	96	4
TAP	13	192	3
TAP	13	288	3
TAP	14	0	2
TAP	14	96	2
TAP	14	192	1
STR	14	288	1
SCR	14	288	1	96	192	4
TAP	15	0	5
TAP	15	96	6
TAP	15	192	7
TAP	15	288	0
TAP	16	0	1
TAP	16	96	2
TAP	16	192	3
STR	16	288	4
SCL	16	288	4	96	192	1
TAP	17	0	0
TAP	17	96	7
TAP	17	192	6
TAP	17	288	5
BRK	18	0	0
HLD	19	0	1	96
TAP	19	96	2
HLD	19	144	4	96
TAP	19	240	5
HLD	19	288	7	96
TAP	20	48	6
TAP	20	48	7
TAP	20	144	4
TAP	20	144	5
TAP	20	240	0
TAP	20	240	7
TAP	20	288	0
TAP	20	288	1
HLD	21	0	7	96
TAP	21	96	6
HLD	21	144	4	96
TAP	21	240	3
HLD	21	288	1	96
TAP	22	48	1
TAP	22	48	2
TAP	22	144	3
TAP	22	144	4
TAP	22	240	0
TAP	22	240	1
TAP	22	288	0
TAP	22	288	7
STR	23	0	6
SI_	23	0	6	96	48	2
TAP	23	96	1
TAP	23	144	1
HLD	23	192	3	96
TAP	23	288	0
TAP	23	336	0
HLD	24	0	7	96
TAP	24	96	0
TAP	24	144	2
TAP	24	192	4
HLD	24	240	6	144
STR	25	0	5
SI_	25	0	5	96	48	1
TAP	25	96	2
TAP	25	144	2
HLD	25	192	0	96
TAP	25	288	3
TAP	25	336	3
HLD	26	0	4	96
TAP	26	96	3
TAP	26	144	1
TAP	26	192	7
STR	26	240	5
SI_	26	240	5	96	48	1
HLD	27	0	2	96
TAP	27	96	3
TAP	27	144	3
HLD	27	192	1	96
TAP	27	288	0
TAP	27	336	0
HLD	27	336	7	96
TAP	28	48	6
HLD	28	144	0	96
TAP	28	144	4
TAP	28	240	2
TAP	28	288	4
TAP	28	336	6
STR	29	0	0
SI_	29	0	0	96	48	4
STR	29	144	2
SI_	29	144	2	96	48	6
TAP	29	192	2
HLD	29	336	6	336
TAP	30	48	4
HLD	30	96	2	192
STR	31	0	1
SCR	31	0	1	96	48	4
TAP	31	96	1
HLD	31	144	0	96
TAP	31	240	7
TAP	31	336	5
STR	32	0	3
SCR	32	0	3	96	48	6
TAP	32	96	3
HLD	32	144	2	192
TAP	32	240	6
TAP	32	336	0
HLD	33	0	0	144
TAP	33	144	7
TAP	33	192	6
TAP	33	240	5
TAP	33	288	4
TAP	33	336	3
TAP	34	48	1
TAP	34	48	2
TAP	34	144	0
TAP	34	144	7
TAP	34	288	1
TAP	34	336	3
STR	35	0	5
SCL	35	0	5	96	48	2
TAP	35	96	5
HLD	35	144	1	96
TAP	35	240	0
TAP	35	336	6
STR	36	0	7
SCR	36	0	7	96	48	2
TAP	36	96	7
HLD	36	144	7	96
HLD	36	240	5	96
TAP	36	336	3
HLD	37	0	2	96
TAP	37	96	3
TAP	37	144	4
BRK	37	144	5
TAP	37	240	6
BRK	37	240	7
TAP	37	336	6
HLD	38	0	5	96
TAP	38	96	4
BRK	38	144	2
TAP	38	144	3
BRK	38	240	0
TAP	38	240	1
TAP	38	336	2
STR	39	0	3
SCL	39	0	3	96	48	0
TAP	39	96	3
STR	39	144	5
SCL	39	144	5	96	48	2
HLD	39	336	3	96
TAP	40	48	4
TAP	40	96	5
HLD	40	144	6	240
BRK	41	0	7
STR	41	288	0
SCR	41	288	0	96	96	3
STR	41	288	7
SCL	41	288	7	96	96	4
STR	42	0	0
SI_	42	0	0	96	192	4
STR	42	0	7
SI_	42	0	7	96	192	3
HLD	43	0	0	96
TAP	43	0	4
TAP	43	96	5
TAP	43	144	2
HLD	43	144	6	96
STR	43	240	3
SI_	43	240	3	96	96	6
STR	43	336	6
SI_	43	336	6	96	96	1
STR	44	48	1
SI_	44	48	1	96	96	4
TAP	45	0	3
STR	45	0	7
SI_	45	0	7	96	48	3
TAP	45	96	7
HLD	45	144	0	96
TAP	45	240	7
TAP	45	288	6
TAP	45	336	5
TAP	46	0	0
STR	46	0	4
SI_	46	0	4	96	48	0
TAP	46	96	4
HLD	46	144	1	96
TAP	46	240	0
TAP	46	288	6
TAP	46	336	4
TAP	47	0	2
HLD	47	0	6	96
TAP	47	96	2
HLD	47	144	0	96
TAP	47	144	4
HLD	47	240	1	96
HLD	47	336	0	96
HLD	48	48	6	96
TAP	48	144	5
TAP	48	240	4
TAP	48	240	6
TAP	48	288	0
TAP	48	288	6
TAP	48	336	0
TAP	48	336	2
TAP	49	48	1
TAP	49	48	5
TAP	49	96	0
TAP	49	96	4
TAP	49	144	3
TAP	49	144	7
STR	49	288	0
SCR	49	288	0	96	96	3
STR	49	288	7
SCL	49	288	7	96	96	4
STR	50	0	0
SI_	50	0	0	96	192	4
STR	50	0	7
SI_	50	0	7	96	192	3
TAP	51	0	3
HLD	51	0	7	96
TAP	51	96	2
HLD	51	144	1	96
TAP	51	144	5
STR	51	240	3
SI_	51	240	3	96	96	0
STR	51	336	0
SI_	51	336	0	96	96	5
STR	52	48	5
SI_	52	48	5	96	96	1
STR	53	0	0
SI_	53	0	0	96	48	4
TAP	53	0	4
TAP	53	96	0
HLD	53	144	7	96
TAP	53	240	0
TAP	53	288	1
TAP	53	336	2
STR	54	0	3
SI_	54	0	3	96	48	7
TAP	54	0	7
TAP	54	96	3
HLD	54	144	6	96
TAP	54	240	7
TAP	54	288	1
TAP	54	336	3
TAP	55	0	5
STR	55	0	7
SI_	55	0	7	96	48	3
TAP	55	96	1
STR	55	144	1
SI_	55	144	1	96	48	5
TAP	55	240	5
TAP	55	288	6
STR	55	336	5
SI_	55	336	5	96	48	0
TAP	55	336	7
TAP	56	48	7
TAP	56	96	5
STR	56	144	0
SI_	56	144	0	96	48	4
TAP	56	144	3
TAP	56	240	0
TAP	56	288	2
HLD	56	336	4	336
STR	58	0	3
SI_	58	0	3	96	192	0
STR	58	0	4
SI_	58	0	4	96	192	7
TAP	59	0	3
HLD	59	0	4	96
TAP	59	96	7
TAP	59	144	1
HLD	59	144	6	96
TAP	59	240	2
TAP	59	288	3
STR	59	288	7
SI_	59	288	7	96	48	3
TAP	60	48	4
TAP	60	144	3
TAP	60	144	4
TAP	60	240	2
TAP	60	240	5
TAP	60	288	0
TAP	60	288	7
TAP	61	0	1
HLD	61	0	6	96
TAP	61	96	5
TAP	61	144	4
HLD	61	144	7	96
TAP	61	240	5
TAP	61	288	6
TAP	61	336	7
HLD	62	0	0	96
TAP	62	96	1
HLD	62	144	3	96
TAP	62	240	4
STR	62	288	5
SCL	62	288	5	96	48	2
HLD	63	0	1	144
HLD	63	144	7	144
HLD	63	288	5	144
TAP	64	48	4
TAP	64	144	5
TAP	64	144	6
TAP	64	240	0
TAP	64	240	7
TAP	64	288	0
TAP	64	288	7
HLD	65	0	6	144
HLD	65	144	4	144
HLD	65	288	2	144
TAP	66	48	1
TAP	66	144	0
TAP	66	144	1
TAP	66	240	0
TAP	66	240	7
STR	66	288	0
SI_	66	288	0	96	48	3
STR	66	288	7
SI_	66	288	7	96	48	4

T_REC_TAP	188
T_REC_BRK	6
T_REC_XTP	0
T_REC_HLD	55
T_REC_XHO	0
T_REC_STR	43
T_REC_BST	0
T_REC_XST	0
T_REC_TTP	0
T_REC_THO	0
T_REC_SLD	43
T_REC_ALL	335
T_NUM_TAP	231
T_NUM_BRK	6
T_NUM_HLD	55
T_NUM_SLD	43
T_NUM_ALL	335
T_JUDGE_TAP	237
T_JUDGE_HLD	163
T_JUDGE_SLD	43
T_JUDGE_ALL	443
TTM_EACHPAIRS	54
TTM_SCR_TAP	115500
TTM_SCR_BRK	15600
TTM_SCR_HLD	55000
TTM_SCR_SLD	64500
TTM_SCR_ALL	250600
TTM_SCR_S	242500
TTM_SCR_SS	250000
TTM_RAT_ACV	10024

