VERSION	0.00.00	1.03.00
FES_MODE	0
BPM_DEF	160.000	160.000	160.000	160.000
MET_DEF	4	4
RESOLUTION	384
CLK_DEF	384
COMPATIBLE_CODE	MA2

BPM	0	0	160.000
MET	0	0	4	4

STR	2	288	0
SI_	2	288	0	96	288	3
STR	2	288	7
SI_	2	288	7	96	288	4
TAP	3	0	0
TAP	3	0	7
STR	4	288	0
SI_	4	288	0	96	288	5
STR	4	288	1
SI_	4	288	1	96	288	4
TAP	5	0	0
TAP	5	0	1
STR	6	288	6
SI_	6	288	6	96	288	3
STR	6	288	7
SI_	6	288	7	96	288	2
TAP	7	0	6
TAP	7	0	7
STR	8	288	3
SI_	8	288	3	96	288	0
STR	8	288	4
SI_	8	288	4	96	288	7
TAP	9	0	3
TAP	9	0	4
STR	10	288	0
SCR	10	288	0	96	288	3
STR	10	288	7
SCL	10	288	7	96	288	4
TAP	11	0	0
TAP	11	0	7
STR	12	288	0
SI_	12	288	0	96	288	3
STR	12	288	1
SI_	12	288	1	96	288	6
TAP	13	0	0
TAP	13	0	1
STR	14	288	4
SI_	14	288	4	96	288	7
STR	14	288	5
SI_	14	288	5	96	288	2
TAP	15	0	4
TAP	15	0	5
STR	16	288	0
SCR	16	288	0	96	192	3
STR	16	288	7
SCL	16	288	7	96	192	4
TAP	17	0	0
TAP	17	0	7
STR	17	288	0
SI_	17	288	0	96	48	4
STR	17	288	7
SI_	17	288	7	96	48	3
HLD	19	0	0	96
HLD	19	0	5	96
HLD	19	144	2	96
HLD	19	144	6	96
HLD	19	288	1	96
HLD	19	288	4	96
TAP	20	48	3
TAP	20	96	2
TAP	20	144	3
TAP	20	192	4
TAP	20	240	5
TAP	20	288	4
HLD	21	0	3	96
HLD	21	0	6	96
HLD	21	144	1	96
HLD	21	144	5	96
HLD	21	288	2	96
HLD	21	288	7	96
TAP	22	48	0
TAP	22	96	1
TAP	22	144	0
TAP	22	192	7
TAP	22	240	6
TAP	22	288	7
HLD	23	0	0	672
HLD	23	0	4	96
TAP	23	192	4
TAP	23	288	4
TAP	24	0	4
TAP	24	96	4
TAP	24	192	4
TAP	24	288	4
HLD	25	0	2	96
HLD	25	0	6	672
TAP	25	192	2
TAP	25	288	2
TAP	26	0	2
TAP	26	96	2
TAP	26	192	2
TAP	26	288	2
HLD	27	0	3	288
HLD	27	0	7	96
TAP	27	192	7
TAP	27	288	7
HLD	28	0	0	96
HLD	28	0	4	288
TAP	28	192	0
TAP	28	288	0
HLD	29	0	1	96
TAP	29	0	5
TAP	29	96	5
TAP	29	192	3
HLD	29	192	7	96
STR	29	288	3
SCL	29	288	3	96	96	0
STR	30	0	7
SCL	30	0	7	96	96	4
TAP	31	0	4
STR	31	0	5
SI_	31	0	5	96	48	0
STR	31	192	2
SI_	31	192	2	96	48	7
TAP	31	192	3
TAP	32	0	5
HLD	32	96	1	96
TAP	32	192	2
HLD	32	288	6	96
STR	33	0	5
SCL	33	0	5	96	48	2
STR	33	192	2
SCR	33	192	2	96	48	5
TAP	34	0	7
HLD	34	96	2	96
HLD	34	192	5	96
STR	34	288	0
SI_	34	288	0	96	48	3
TAP	35	0	0
STR	35	96	6
SI_	35	96	6	96	48	2
TAP	35	192	6
STR	35	288	7
SI_	35	288	7	96	48	4
TAP	36	0	7
STR	36	96	1
SI_	36	96	1	96	48	5
TAP	36	192	1
HLD	37	0	3	96
HLD	37	0	7	96
STR	37	144	3
SI_	37	144	3	96	48	6
STR	37	144	7
SI_	37	144	7	96	48	2
HLD	38	0	1	96
HLD	38	0	5	96
STR	38	144	1
SI_	38	144	1	96	48	4
STR	38	144	5
SI_	38	144	5	96	48	0
TAP	39	0	2
STR	39	0	6
SI_	39	0	6	96	48	3
STR	39	144	2
SI_	39	144	2	96	48	7
TAP	39	336	0
TAP	39	336	4
TAP	40	48	2
TAP	40	48	6
STR	40	144	0
SCL	40	144	0	96	144	5
STR	40	144	4
SCL	40	144	4	96	144	1
STR	41	288	0
SCR	41	288	0	96	48	3
STR	41	288	7
SCL	41	288	7	96	48	4
STR	42	0	0
SI_	42	0	0	96	192	4
STR	42	0	7
SI_	42	0	7	96	192	3
STR	43	0	0
SI_	43	0	0	96	48	5
TAP	43	96	7
STR	43	144	6
SI_	43	144	6	96	48	3
HLD	43	336	0	96
HLD	44	48	1	96
STR	44	144	2
SCR	44	144	2	96	48	5
STR	45	0	7
SI_	45	0	7	96	48	2
STR	45	144	3
SI_	45	144	3	96	48	6
STR	45	336	5
SI_	45	336	5	96	144	2
STR	45	336	7
SI_	45	336	7	96	144	2
STR	47	0	7
SI_	47	0	7	96	48	2
TAP	47	96	0
STR	47	144	1
SI_	47	144	1	96	48	4
HLD	47	336	7	96
HLD	48	48	6	96
TAP	48	144	5
STR	48	240	0
SI_	48	240	0	96	48	5
STR	48	240	1
SI_	48	240	1	96	48	4
STR	49	48	6
SI_	49	48	6	96	48	3
STR	49	48	7
SI_	49	48	7	96	48	2
STR	49	288	0
SCR	49	288	0	96	48	3
STR	49	288	7
SCL	49	288	7	96	48	4
STR	50	0	0
SI_	50	0	0	96	192	4
STR	50	0	7
SI_	50	0	7	96	192	3
STR	51	0	6
SI_	51	0	6	96	48	2
STR	51	144	1
SI_	51	144	1	96	48	5
TAP	51	336	0
TAP	51	336	7
STR	52	48	2
SI_	52	48	2	96	96	6
STR	52	48	5
SI_	52	48	5	96	96	1
TAP	53	0	3
TAP	53	0	7
TAP	53	96	1
TAP	53	96	5
STR	53	144	2
SI_	53	144	2	96	48	7
STR	53	144	6
SI_	53	144	6	96	48	3
STR	53	336	0
SCR	53	336	0	96	144	3
STR	53	336	4
SCR	53	336	4	96	144	7
TAP	55	0	4
TAP	55	48	4
TAP	55	96	4
HLD	55	144	2	96
TAP	55	240	3
HLD	55	336	6	96
TAP	56	48	5
HLD	56	144	0	432
STR	56	240	1
SI_	56	240	1	96	240	6
TAP	56	288	1
STR	58	0	0
SCR	58	0	0	96	48	3
STR	58	48	7
SCL	58	48	7	96	48	4
STR	58	96	0
SI_	58	96	0	96	96	4
STR	58	144	7
SI_	58	144	7	96	96	3
HLD	59	0	0	96
HLD	59	0	5	96
HLD	59	144	3	96
HLD	59	144	7	96
HLD	59	288	1	336
HLD	59	288	4	96
TAP	60	48	4
TAP	60	144	4
TAP	60	240	4
TAP	60	288	0
TAP	60	288	3
HLD	61	0	2	96
HLD	61	0	7	96
HLD	61	144	0	96
HLD	61	144	4	96
HLD	61	288	3	96
HLD	61	288	6	336
TAP	62	48	2
TAP	62	144	2
TAP	62	240	2
TAP	62	288	4
TAP	62	288	7
STR	63	0	0
SI_	63	0	0	96	48	4
STR	63	144	3
SI_	63	144	3	96	48	6
STR	63	288	7
SI_	63	288	7	96	48	2
TAP	64	48	3
TAP	64	144	3
TAP	64	240	0
TAP	64	240	3
TAP	64	288	1
TAP	64	288	6
STR	65	0	7
SI_	65	0	7	96	48	3
STR	65	144	4
SI_	65	144	4	96	48	1
STR	65	288	0
SI_	65	288	0	96	48	5
TAP	66	48	4
TAP	66	144	4
TAP	66	240	4
TAP	66	240	7
TAP	66	288	1
TAP	66	288	6
BRK	67	0	3
BRK	67	0	4

T_REC_TAP	98
T_REC_BRK	2
T_REC_XTP	0
T_REC_HLD	49
T_REC_XHO	0
T_REC_STR	76
T_REC_BST	0
T_REC_XST	0
T_REC_TTP	0
T_REC_THO	0
T_REC_SLD	76
T_REC_ALL	301
T_NUM_TAP	174
T_NUM_BRK	2
T_NUM_HLD	49
T_NUM_SLD	76
T_NUM_ALL	301
T_JUDGE_TAP	176
T_JUDGE_HLD	147
T_JUDGE_SLD	76
T_JUDGE_ALL	399
TTM_EACHPAIRS	65
TTM_SCR_TAP	87000
TTM_SCR_BRK	5200
TTM_SCR_HLD	49000
TTM_SCR_SLD	114000
TTM_SCR_ALL	255200
TTM_SCR_S	247350
TTM_SCR_SS	255000
TTM_RAT_ACV	10007

