VERSION	0.00.00	1.03.00
FES_MODE	0
BPM_DEF	160.000	160.000	160.000	160.000
MET_DEF	4	4
RESOLUTION	384
CLK_DEF	384
COMPATIBLE_CODE	MA2

BPM	0	0	160.000
MET	0	0	4	4

HLD	3	0	1	384
TAP	4	0	0
HLD	5	0	0	384
TAP	6	0	7
HLD	7	0	7	384
TAP	8	0	6
HLD	9	0	6	384
TAP	10	0	5
HLD	11	0	6	576
TAP	11	192	7
TAP	12	0	7
TAP	12	192	7
HLD	13	0	7	576
TAP	13	192	0
TAP	14	0	0
TAP	14	192	0
HLD	15	0	0	576
TAP	15	192	1
TAP	16	0	1
TAP	16	192	1
HLD	17	0	1	192
TAP	17	192	2
BRK	18	0	2
TAP	19	0	7
TAP	19	144	5
TAP	19	288	3
TAP	20	96	1
TAP	20	192	1
TAP	20	288	1
TAP	20	288	2
TAP	21	0	0
TAP	21	144	2
TAP	21	288	4
TAP	22	96	6
TAP	22	192	6
TAP	22	288	5
TAP	22	288	6
HLD	23	0	4	192
TAP	23	192	6
HLD	24	0	7	192
TAP	24	192	5
HLD	25	0	3	192
TAP	25	192	1
TAP	26	0	2
TAP	26	96	2
TAP	26	192	2
HLD	27	0	5	192
TAP	27	192	7
HLD	28	0	6	192
TAP	28	192	4
HLD	29	0	1	192
TAP	29	192	3
TAP	30	0	0
TAP	30	96	0
TAP	30	192	0
HLD	31	0	0	192
HLD	31	192	7	192
HLD	32	0	6	192
TAP	32	192	5
HLD	33	0	7	192
HLD	33	192	0	192
HLD	34	0	1	192
TAP	34	192	2
HLD	35	0	2	192
HLD	35	192	3	192
HLD	36	0	4	192
TAP	36	192	5
STR	37	0	0
SI_	37	0	0	96	96	5
STR	38	0	7
SI_	38	0	7	96	96	2
STR	39	0	1
SI_	39	0	1	96	96	4
STR	40	0	6
SI_	40	0	6	96	96	3
HLD	41	0	1	384
BRK	42	0	6
HLD	43	0	0	144
TAP	43	240	0
HLD	43	336	7	96
HLD	44	48	6	96
HLD	44	144	5	144
TAP	45	0	3
TAP	45	96	2
HLD	45	144	2	144
TAP	46	0	5
TAP	46	96	6
HLD	46	144	6	144
HLD	47	0	7	144
TAP	47	240	7
HLD	47	336	0	96
HLD	48	48	1	96
TAP	48	144	2
TAP	48	240	0
TAP	48	288	0
TAP	48	336	0
TAP	49	48	7
TAP	49	96	7
TAP	49	144	7
STR	50	0	0
SCR	50	0	0	96	192	3
STR	50	0	7
SCL	50	0	7	96	192	4
TAP	51	0	0
TAP	51	96	0
TAP	51	96	1
TAP	51	192	0
TAP	51	288	0
TAP	51	288	1
TAP	52	0	7
TAP	52	96	6
TAP	52	96	7
TAP	52	192	7
TAP	52	288	6
TAP	52	288	7
TAP	53	0	5
TAP	53	96	4
TAP	53	96	5
TAP	53	192	5
TAP	53	288	4
TAP	53	288	5
TAP	54	0	2
TAP	54	96	2
TAP	54	96	3
TAP	54	192	2
TAP	54	288	2
TAP	54	288	3
TAP	55	0	1
TAP	55	96	0
TAP	55	96	1
TAP	55	192	1
TAP	55	288	0
TAP	55	288	1
TAP	56	0	7
TAP	56	96	6
TAP	56	96	7
TAP	56	192	7
TAP	56	288	6
TAP	56	288	7
STR	57	0	0
SI_	57	0	0	96	96	4
STR	57	192	7
SI_	57	192	7	96	96	3
BRK	58	0	0
HLD	59	0	6	96
HLD	59	144	7	96
HLD	59	288	0	96
TAP	60	96	1
TAP	60	192	1
TAP	60	288	0
TAP	60	288	1
HLD	61	0	2	96
HLD	61	144	3	96
HLD	61	288	4	96
TAP	62	96	5
TAP	62	192	5
TAP	62	288	4
TAP	62	288	5
HLD	63	0	7	96
HLD	63	144	6	96
HLD	63	288	5	96
TAP	64	96	4
TAP	64	192	4
TAP	64	288	3
TAP	64	288	4
HLD	65	0	3	96
HLD	65	144	2	96
HLD	65	288	1	96
TAP	66	96	0
TAP	66	192	0
TAP	66	288	0
TAP	66	288	7
BRK	67	0	1
BRK	67	0	6

T_REC_TAP	108
T_REC_BRK	5
T_REC_XTP	0
T_REC_HLD	45
T_REC_XHO	0
T_REC_STR	8
T_REC_BST	0
T_REC_XST	0
T_REC_TTP	0
T_REC_THO	0
T_REC_SLD	8
T_REC_ALL	174
T_NUM_TAP	116
T_NUM_BRK	5
T_NUM_HLD	45
T_NUM_SLD	8
T_NUM_ALL	174
T_JUDGE_TAP	121
T_JUDGE_HLD	187
T_JUDGE_SLD	8
T_JUDGE_ALL	316
TTM_EACHPAIRS	20
TTM_SCR_TAP	58000
TTM_SCR_BRK	13000
TTM_SCR_HLD	45000
TTM_SCR_SLD	12000
TTM_SCR_ALL	128000
TTM_SCR_S	123700
TTM_SCR_SS	127500
TTM_RAT_ACV	10039

