VERSION	0.00.00	1.03.00
FES_MODE	0
BPM_DEF	155.000	155.000	155.000	155.000
MET_DEF	4	4
RESOLUTION	384
CLK_DEF	384
COMPATIBLE_CODE	MA2

BPM	0	0	155.000
MET	0	0	4	4

TAP	2	0	6
TAP	2	0	7
TAP	2	48	5
TAP	2	96	4
HLD	2	144	3	144
TAP	2	288	0
TAP	3	0	0
TAP	3	0	1
TAP	3	48	2
TAP	3	96	3
HLD	3	144	4	144
TAP	3	288	7
TAP	4	0	0
TAP	4	0	7
TAP	4	48	1
TAP	4	48	6
HLD	4	96	2	96
HLD	4	96	5	96
TAP	4	288	3
STR	4	336	3
SI_	4	336	3	96	48	0
TAP	5	96	4
STR	5	144	4
SI_	5	144	4	96	48	7
TAP	5	288	0
TAP	5	336	0
BRK	6	0	1
BRK	6	0	5
HLD	6	48	4	48
HLD	6	96	3	48
HLD	6	144	2	96
TAP	6	240	0
TAP	6	288	0
TAP	6	336	1
TAP	6	336	7
TAP	7	0	2
TAP	7	0	6
HLD	7	48	3	48
HLD	7	96	4	48
HLD	7	144	5	96
TAP	7	240	7
TAP	7	288	7
TAP	7	336	0
TAP	7	336	6
STR	8	0	1
SLR	8	0	1	96	96	5
STR	8	0	5
SLR	8	0	5	96	96	1
TAP	8	288	2
TAP	8	312	3
TAP	8	336	1
TAP	8	360	4
STR	9	0	0
SF_	9	0	0	96	96	4
STR	10	0	1
SI_	10	0	1	96	48	5
TAP	10	0	6
TAP	10	96	1
TAP	10	96	7
TAP	10	144	7
TAP	10	240	2
TAP	10	240	3
TAP	10	288	7
TAP	10	336	4
TAP	10	336	5
TAP	11	0	1
STR	11	0	6
SI_	11	0	6	96	48	2
TAP	11	96	0
TAP	11	96	6
TAP	11	144	0
TAP	11	240	4
TAP	11	240	5
TAP	11	288	0
TAP	11	336	2
TAP	11	336	3
STR	12	0	1
SI_	12	0	1	96	48	5
TAP	12	0	4
TAP	12	96	0
TAP	12	96	1
TAP	12	144	0
TAP	12	240	2
TAP	12	240	3
TAP	12	288	7
TAP	12	336	4
TAP	12	336	5
TAP	13	0	3
STR	13	0	6
SI_	13	0	6	96	48	2
TAP	13	96	6
TAP	13	96	7
TAP	13	144	7
TAP	13	240	4
TAP	13	240	5
TAP	13	288	0
TAP	13	336	2
TAP	13	336	3
STR	14	0	1
SI_	14	0	1	96	48	5
TAP	14	0	7
TAP	14	96	1
TAP	14	96	3
TAP	14	144	3
TAP	14	240	4
TAP	14	240	5
TAP	14	288	0
TAP	14	336	2
TAP	14	336	3
TAP	15	0	0
STR	15	0	6
SI_	15	0	6	96	48	2
TAP	15	96	4
TAP	15	96	6
TAP	15	144	4
TAP	15	240	2
TAP	15	240	3
TAP	15	288	7
TAP	15	336	4
TAP	15	336	5
STR	16	0	1
SI_	16	0	1	96	48	5
TAP	16	0	7
TAP	16	96	1
TAP	16	96	3
TAP	16	144	3
TAP	16	240	4
TAP	16	240	5
TAP	16	288	0
TAP	16	336	2
TAP	16	336	3
HLD	17	0	4	96
TAP	17	0	5
TAP	17	96	3
STR	17	144	0
SI_	17	144	0	96	48	4
STR	17	144	7
SI_	17	144	7	96	48	3
BRK	17	240	0
BRK	17	240	7
STR	18	0	0
SI_	18	0	0	96	48	4
TAP	18	0	2
TAP	18	96	7
STR	18	144	7
SI_	18	144	7	96	48	3
TAP	18	240	6
TAP	18	288	6
TAP	19	0	5
STR	19	0	7
SI_	19	0	7	96	48	3
TAP	19	96	0
STR	19	144	0
SI_	19	144	0	96	48	4
TAP	19	240	1
TAP	19	288	1
TAP	20	0	2
STR	20	0	7
SI_	20	0	7	96	48	3
TAP	20	96	6
TAP	20	96	7
STR	20	144	6
SI_	20	144	6	96	48	2
TAP	20	240	5
TAP	20	288	5
STR	21	0	0
SI_	21	0	0	96	48	4
TAP	21	0	5
TAP	21	96	0
TAP	21	96	1
STR	21	144	1
SI_	21	144	1	96	48	5
TAP	21	240	2
TAP	21	288	2
STR	22	0	0
SCR	22	0	0	96	48	3
TAP	22	0	1
TAP	22	96	0
TAP	22	96	7
STR	22	144	7
SI_	22	144	7	96	48	3
TAP	22	240	5
TAP	22	240	7
TAP	22	288	5
TAP	23	0	6
STR	23	0	7
SCL	23	0	7	96	48	4
TAP	23	96	0
TAP	23	96	7
STR	23	144	0
SI_	23	144	0	96	48	4
TAP	23	240	0
TAP	23	240	2
TAP	23	288	2
TAP	24	0	6
TAP	24	0	7
STR	24	48	6
SI_	24	48	6	96	48	2
TAP	24	48	7
TAP	24	144	0
TAP	24	144	6
STR	24	192	0
SI_	24	192	0	96	48	4
TAP	24	288	0
TAP	24	288	7
STR	24	336	7
SI_	24	336	7	96	48	3
TAP	25	48	1
TAP	25	48	7
STR	25	96	1
SCR	25	96	1	96	96	6
TAP	26	0	0
TAP	26	0	7
TAP	26	48	1
TAP	26	72	6
TAP	26	96	2
TAP	26	120	5
TAP	26	144	3
TAP	26	168	4
TAP	26	192	2
TAP	26	216	5
TAP	26	240	1
TAP	26	264	6
TAP	26	288	0
TAP	26	312	7
TAP	26	336	1
TAP	26	360	6
HLD	27	0	2	96
TAP	27	96	1
TAP	27	144	5
STR	27	144	7
SI_	27	144	7	96	48	4
STR	27	240	0
SI_	27	240	0	96	48	3
TAP	27	240	7
TAP	27	336	0
STR	27	336	2
SSL	27	336	2	96	96	6
TAP	28	48	7
TAP	28	96	7
TAP	28	240	4
TAP	28	240	5
TAP	28	288	0
TAP	28	288	7
TAP	28	336	2
TAP	28	336	3
HLD	29	0	5	96
TAP	29	96	6
STR	29	144	0
SI_	29	144	0	96	48	3
TAP	29	144	2
TAP	29	240	0
STR	29	240	7
SI_	29	240	7	96	48	4
STR	29	336	5
SSR	29	336	5	96	96	1
TAP	29	336	7
TAP	30	48	0
TAP	30	96	0
TAP	30	240	2
TAP	30	240	3
TAP	30	288	0
TAP	30	288	7
TAP	30	336	4
TAP	30	336	5
HLD	31	0	2	96
TAP	31	96	1
TAP	31	144	5
STR	31	144	7
SUL	31	144	7	96	48	3
STR	31	240	0
SCL	31	240	0	96	48	5
TAP	31	240	7
TAP	31	336	0
STR	31	336	2
SSL	31	336	2	96	96	6
TAP	32	48	7
TAP	32	96	7
TAP	32	240	4
TAP	32	240	5
TAP	32	288	0
TAP	32	288	7
TAP	32	336	2
TAP	32	336	3
HLD	33	0	5	96
TAP	33	96	6
STR	33	144	0
SUR	33	144	0	96	48	4
TAP	33	144	2
TAP	33	240	0
STR	33	240	7
SCR	33	240	7	96	48	2
STR	33	336	5
SSR	33	336	5	96	96	1
TAP	33	336	7
TAP	34	48	0
TAP	34	96	0
TAP	34	240	2
TAP	34	240	3
TAP	34	288	0
TAP	34	288	7
TAP	34	336	4
TAP	34	336	5
HLD	35	0	2	96
TAP	35	96	1
TAP	35	144	5
STR	35	144	7
SV_	35	144	7	96	48	1
STR	35	240	0
SLL	35	240	0	96	48	4
TAP	35	240	7
TAP	35	336	0
STR	35	336	2
SSL	35	336	2	96	96	6
TAP	36	48	7
TAP	36	96	7
TAP	36	240	4
TAP	36	240	5
TAP	36	288	0
TAP	36	288	7
TAP	36	336	2
TAP	36	336	3
HLD	37	0	5	96
TAP	37	96	6
STR	37	144	0
SV_	37	144	0	96	48	6
TAP	37	144	2
TAP	37	240	0
STR	37	240	7
SLR	37	240	7	96	48	3
STR	37	336	5
SSR	37	336	5	96	96	1
TAP	37	336	7
TAP	38	48	0
TAP	38	96	0
TAP	38	240	2
TAP	38	240	3
TAP	38	288	4
TAP	38	288	5
TAP	38	336	0
TAP	38	336	7
BRK	39	0	3
BRK	39	0	4
TAP	39	48	2
TAP	39	48	5
TAP	39	96	1
TAP	39	96	6
STR	39	144	0
SI_	39	144	0	96	48	4
STR	39	144	7
SI_	39	144	7	96	48	3
STR	39	240	0
SI_	39	240	0	96	48	5
STR	39	240	7
SI_	39	240	7	96	48	2
TAP	39	336	0
TAP	39	336	7
TAP	40	48	3
TAP	40	48	4
STR	40	96	3
SCL	40	96	3	96	48	0
STR	40	96	4
SCR	40	96	4	96	48	7
BST	40	336	0
SI_	40	336	0	96	48	4
BRK	40	336	1
BRK	41	48	0
BST	41	48	7
SI_	41	48	7	96	48	3
BST	41	144	6
SI_	41	144	6	96	48	2
BRK	41	144	7
BRK	41	240	5
BRK	41	240	6
BRK	41	336	6
BST	41	336	7
SI_	41	336	7	96	48	3
BST	42	48	0
SI_	42	48	0	96	48	4
BRK	42	48	7
BRK	42	144	0
HLD	42	144	1	144
TAP	42	288	2
TAP	42	336	2
TAP	43	0	1
TAP	43	0	3
TAP	43	96	4
TAP	43	96	6
STR	43	144	3
SI_	43	144	3	96	48	7
STR	43	144	4
SI_	43	144	4	96	48	0
STR	43	240	3
SI_	43	240	3	96	48	6
STR	43	240	4
SI_	43	240	4	96	48	1
TAP	43	336	3
TAP	43	336	4
TAP	44	48	0
TAP	44	48	7
STR	44	96	0
SCR	44	96	0	96	48	3
STR	44	96	7
SCL	44	96	7	96	48	4
TAP	44	336	1
STR	44	336	3
SI_	44	336	3	96	48	0
TAP	45	48	3
TAP	45	48	4
TAP	45	96	5
STR	45	144	4
SI_	45	144	4	96	48	7
TAP	45	144	6
TAP	45	240	3
TAP	45	240	4
TAP	45	288	2
TAP	45	336	1
TAP	45	336	6
TAP	46	0	0
TAP	46	0	7
TAP	46	48	0
TAP	46	48	7
TAP	46	96	1
TAP	46	96	6
TAP	46	144	1
TAP	46	144	6
TAP	46	240	3
TAP	46	264	4
TAP	46	288	2
TAP	46	312	5
TAP	46	336	1
TAP	46	360	6
STR	47	0	0
SCR	47	0	0	96	96	6
TAP	47	240	7
TAP	47	264	6
TAP	47	288	5
TAP	47	312	4
TAP	47	336	3
TAP	47	360	2
STR	48	0	1
SLR	48	0	1	96	48	7
STR	48	144	6
SLL	48	144	6	96	48	0
TAP	48	336	3
TAP	48	360	4
TAP	49	0	3
TAP	49	96	3
TAP	49	96	4
TAP	49	144	2
TAP	49	144	5
TAP	49	240	0
TAP	49	240	1
TAP	49	288	3
TAP	49	288	6
TAP	49	336	6
TAP	49	336	7
TAP	50	0	1
TAP	50	0	4
TAP	50	144	0
TAP	50	144	7
TAP	50	168	0
TAP	50	168	7
TAP	50	192	0
TAP	50	192	7
BRK	51	0	2
BRK	51	0	6
HLD	51	48	3	48
HLD	51	96	4	48
HLD	51	144	5	96
TAP	51	240	7
TAP	51	288	7
TAP	51	336	0
TAP	51	336	6
TAP	52	0	1
TAP	52	0	5
HLD	52	48	4	48
HLD	52	96	3	48
HLD	52	144	2	96
TAP	52	240	0
TAP	52	288	0
TAP	52	336	1
TAP	52	336	7
STR	53	0	2
SLL	53	0	2	96	96	6
STR	53	0	6
SLL	53	0	6	96	96	2
TAP	53	288	5
TAP	53	312	4
TAP	53	336	6
TAP	53	360	3
STR	54	0	7
SF_	54	0	7	96	96	3
BRK	54	336	1
BRK	54	336	6

T_REC_TAP	307
T_REC_BRK	18
T_REC_XTP	0
T_REC_HLD	24
T_REC_XHO	0
T_REC_STR	68
T_REC_BST	5
T_REC_XST	0
T_REC_TTP	0
T_REC_THO	0
T_REC_SLD	73
T_REC_ALL	495
T_NUM_TAP	375
T_NUM_BRK	23
T_NUM_HLD	24
T_NUM_SLD	73
T_NUM_ALL	495
T_JUDGE_TAP	398
T_JUDGE_HLD	43
T_JUDGE_SLD	73
T_JUDGE_ALL	514
TTM_EACHPAIRS	141
TTM_SCR_TAP	187500
TTM_SCR_BRK	59800
TTM_SCR_HLD	24000
TTM_SCR_SLD	109500
TTM_SCR_ALL	380800
TTM_SCR_S	367150
TTM_SCR_SS	378500
TTM_RAT_ACV	10060

