VERSION	0.00.00	1.03.00
FES_MODE	0
BPM_DEF	155.000	155.000	155.000	155.000
MET_DEF	4	4
RESOLUTION	384
CLK_DEF	384
COMPATIBLE_CODE	MA2

BPM	0	0	155.000
MET	0	0	4	4

STR	2	0	0
SI_	2	0	0	96	192	4
STR	3	0	4
SI_	3	0	4	96	192	1
STR	4	0	1
SI_	4	0	1	96	192	6
STR	5	0	6
SI_	5	0	6	96	192	3
STR	6	0	3
SI_	6	0	3	96	192	7
HLD	6	0	4	192
TAP	6	288	4
HLD	7	0	5	192
TAP	7	288	5
HLD	8	0	6	672
HLD	8	0	7	192
STR	8	288	7
SCR	8	288	7	96	288	2
HLD	10	0	1	384
TAP	10	336	2
HLD	11	0	2	384
TAP	11	336	3
HLD	12	0	3	384
TAP	12	336	4
HLD	13	0	4	384
TAP	13	336	5
HLD	14	0	5	192
TAP	14	144	6
HLD	14	192	6	192
TAP	14	336	7
HLD	15	0	7	192
TAP	15	144	0
HLD	15	192	0	192
TAP	15	336	1
HLD	16	0	1	192
TAP	16	144	2
HLD	16	192	2	192
TAP	16	336	3
HLD	17	0	3	96
HLD	17	96	4	96
HLD	17	192	5	96
TAP	17	288	6
TAP	18	0	6
HLD	18	0	7	96
TAP	18	96	0
TAP	18	144	1
TAP	18	144	2
TAP	18	240	4
TAP	18	240	5
TAP	18	336	4
TAP	19	0	4
HLD	19	0	5	96
TAP	19	96	6
TAP	19	144	0
TAP	19	144	7
TAP	19	240	2
TAP	19	240	3
TAP	19	336	3
HLD	20	0	2	96
TAP	20	0	3
TAP	20	96	1
TAP	20	144	0
TAP	20	144	7
TAP	20	240	4
TAP	20	240	5
TAP	20	336	5
HLD	21	0	4	96
TAP	21	0	5
TAP	21	96	3
BRK	21	144	1
BRK	21	144	2
BRK	21	240	6
BRK	21	240	7
TAP	21	336	6
HLD	22	0	0	96
TAP	22	0	6
TAP	22	96	1
TAP	22	144	3
TAP	22	144	5
TAP	22	240	4
TAP	22	240	6
TAP	22	336	4
TAP	23	0	4
HLD	23	0	6	96
TAP	23	96	7
TAP	23	144	0
TAP	23	144	2
TAP	23	240	1
TAP	23	240	3
TAP	23	336	3
STR	24	0	1
SI_	24	0	1	96	48	6
TAP	24	48	1
STR	24	144	7
SI_	24	144	7	96	48	3
TAP	24	192	7
STR	24	288	6
SI_	24	288	6	96	48	1
TAP	24	336	6
STR	25	48	4
SI_	25	48	4	96	240	7
TAP	25	96	4
STR	25	288	3
SI_	25	288	3	96	288	6
STR	27	0	0
SI_	27	0	0	96	48	5
TAP	27	96	0
STR	27	144	6
SI_	27	144	6	96	48	3
TAP	27	240	6
TAP	27	336	2
HLD	28	48	4	144
HLD	28	96	5	192
TAP	28	240	4
TAP	28	288	4
STR	29	0	5
SI_	29	0	5	96	48	1
TAP	29	96	5
STR	29	144	2
SI_	29	144	2	96	48	6
TAP	29	240	2
TAP	29	336	4
HLD	30	48	3	144
HLD	30	96	1	192
TAP	30	240	3
TAP	30	288	3
STR	31	0	0
SI_	31	0	0	96	48	4
TAP	31	96	0
STR	31	144	6
SI_	31	144	6	96	48	2
TAP	31	240	6
STR	31	336	4
SCL	31	336	4	96	96	1
TAP	32	48	4
HLD	32	48	5	240
TAP	32	240	1
TAP	32	288	1
STR	33	0	7
SI_	33	0	7	96	48	3
TAP	33	96	7
STR	33	144	1
SI_	33	144	1	96	48	5
TAP	33	240	1
STR	33	336	3
SCR	33	336	3	96	96	6
TAP	34	48	3
HLD	34	96	2	192
TAP	34	240	6
BRK	34	288	6
STR	35	0	7
SI_	35	0	7	96	48	2
TAP	35	96	7
STR	35	144	1
SI_	35	144	1	96	48	4
TAP	35	240	1
TAP	35	336	5
HLD	36	48	3	144
HLD	36	96	2	192
TAP	36	240	3
TAP	36	288	3
STR	37	0	2
SI_	37	0	2	96	48	6
TAP	37	96	2
STR	37	144	5
SI_	37	144	5	96	48	1
TAP	37	240	5
TAP	37	336	3
HLD	38	48	4	144
HLD	38	96	6	192
TAP	38	240	4
TAP	38	288	4
STR	39	0	7
SI_	39	0	7	96	48	3
TAP	39	48	7
TAP	39	96	7
STR	39	144	1
SI_	39	144	1	96	48	5
TAP	39	240	1
STR	39	336	3
SCR	39	336	3	96	96	6
TAP	40	48	3
HLD	40	96	2	192
TAP	40	336	6
TAP	40	336	7
TAP	41	48	0
TAP	41	48	1
TAP	41	144	4
TAP	41	144	5
TAP	41	240	2
TAP	41	240	3
TAP	41	336	5
TAP	41	336	7
TAP	42	48	1
TAP	42	48	6
TAP	42	144	2
TAP	42	144	4
BRK	42	288	3
BRK	42	336	5
STR	43	0	0
SI_	43	0	0	96	48	5
TAP	43	96	0
STR	43	144	6
SI_	43	144	6	96	48	3
TAP	43	240	6
TAP	43	336	2
HLD	44	48	4	240
HLD	44	96	5	192
TAP	44	336	0
TAP	44	336	6
TAP	45	48	3
TAP	45	96	7
TAP	45	144	2
HLD	45	240	5	144
HLD	45	288	1	96
TAP	46	96	4
HLD	46	144	3	96
STR	46	288	0
SCL	46	288	0	96	192	5
HLD	46	336	1	336
TAP	47	288	5
HLD	48	0	3	144
HLD	48	144	2	144
STR	48	288	7
SCR	48	288	7	96	192	2
HLD	49	0	6	288
TAP	49	288	2
HLD	50	0	4	144
HLD	50	144	5	144
STR	50	288	0
SI_	50	288	0	96	192	4
STR	51	288	4
SI_	51	288	4	96	192	1
STR	52	288	1
SI_	52	288	1	96	192	6
STR	53	288	6
SI_	53	288	6	96	192	3
STR	54	240	0
SI_	54	240	0	96	24	3

T_REC_TAP	113
T_REC_BRK	7
T_REC_XTP	0
T_REC_HLD	45
T_REC_XHO	0
T_REC_STR	37
T_REC_BST	0
T_REC_XST	0
T_REC_TTP	0
T_REC_THO	0
T_REC_SLD	37
T_REC_ALL	239
T_NUM_TAP	150
T_NUM_BRK	7
T_NUM_HLD	45
T_NUM_SLD	37
T_NUM_ALL	239
T_JUDGE_TAP	157
T_JUDGE_HLD	182
T_JUDGE_SLD	37
T_JUDGE_ALL	376
TTM_EACHPAIRS	29
TTM_SCR_TAP	75000
TTM_SCR_BRK	18200
TTM_SCR_HLD	45000
TTM_SCR_SLD	55500
TTM_SCR_ALL	193700
TTM_SCR_S	187250
TTM_SCR_SS	193000
TTM_RAT_ACV	10036

