VERSION	0.00.00	1.03.00
FES_MODE	0
BPM_DEF	155.000	155.000	155.000	155.000
MET_DEF	4	4
RESOLUTION	384
CLK_DEF	384
COMPATIBLE_CODE	MA2

BPM	0	0	155.000
MET	0	0	4	4

HLD	2	0	0	384
HLD	3	0	6	384
HLD	4	0	2	384
HLD	5	0	4	384
HLD	6	0	0	192
TAP	6	192	2
TAP	6	288	3
HLD	7	0	7	192
TAP	7	192	6
TAP	7	288	5
HLD	8	0	4	288
STR	8	288	0
SI_	8	288	0	96	192	3
STR	10	0	5
SI_	10	0	5	96	192	1
STR	11	0	0
SI_	11	0	0	96	192	4
STR	12	0	6
SI_	12	0	6	96	192	2
STR	13	0	0
SCL	13	0	0	96	192	5
HLD	14	0	1	192
TAP	14	0	4
TAP	14	192	2
TAP	15	0	1
HLD	15	0	7	192
TAP	15	192	6
HLD	16	0	2	192
TAP	16	0	7
TAP	16	192	3
TAP	17	0	2
HLD	17	0	6	96
STR	17	96	4
SI_	17	96	4	96	96	0
HLD	18	0	7	144
TAP	18	96	4
TAP	18	144	4
TAP	18	240	5
HLD	19	0	2	144
TAP	19	96	0
TAP	19	144	0
TAP	19	240	1
HLD	20	0	5	144
TAP	20	96	7
TAP	20	144	7
STR	20	240	7
SCR	20	240	7	96	192	2
HLD	22	0	0	144
TAP	22	96	2
TAP	22	144	2
TAP	22	240	1
HLD	23	0	4	144
TAP	23	96	6
TAP	23	144	6
HLD	24	0	0	192
TAP	24	192	4
STR	24	288	2
SCL	24	288	2	96	192	7
STR	24	288	6
SCL	24	288	6	96	192	3
STR	25	288	2
SCR	25	288	2	96	192	5
STR	25	288	6
SCR	25	288	6	96	192	1
TAP	27	0	0
TAP	27	0	1
TAP	27	96	2
TAP	27	192	4
TAP	27	192	6
TAP	27	288	5
TAP	28	0	1
TAP	28	0	2
TAP	28	96	0
HLD	28	192	5	96
TAP	28	288	4
TAP	29	0	6
TAP	29	0	7
TAP	29	96	5
TAP	29	192	1
TAP	29	192	3
TAP	29	288	2
TAP	30	0	5
TAP	30	0	6
TAP	30	96	7
HLD	30	192	2	96
TAP	30	288	3
TAP	31	0	0
HLD	31	0	1	96
TAP	31	96	2
HLD	31	192	4	96
TAP	31	288	6
HLD	32	0	1	96
TAP	32	0	3
TAP	32	96	2
HLD	32	192	6	96
TAP	32	288	7
TAP	33	0	0
HLD	33	0	2	96
TAP	33	96	1
HLD	33	192	4	96
TAP	33	288	6
HLD	34	0	1	96
TAP	34	0	3
TAP	34	96	2
HLD	34	192	6	96
TAP	34	192	7
TAP	34	288	7
HLD	35	0	0	96
TAP	35	96	1
HLD	35	144	1	96
HLD	35	240	2	96
STR	35	336	3
SI_	35	336	3	96	96	7
TAP	36	240	7
HLD	36	288	7	96
HLD	37	0	6	96
TAP	37	96	5
HLD	37	144	5	96
HLD	37	240	4	96
STR	37	336	3
SCR	37	336	3	96	96	6
TAP	38	240	1
HLD	38	288	1	96
HLD	39	0	2	96
TAP	39	96	3
HLD	39	144	3	96
HLD	39	240	4	96
STR	39	336	5
SI_	39	336	5	96	96	1
TAP	40	336	0
TAP	40	336	1
TAP	41	48	5
TAP	41	48	6
TAP	41	144	2
TAP	41	144	3
TAP	41	240	6
TAP	41	240	7
TAP	41	336	0
TAP	41	336	2
TAP	42	48	3
TAP	42	48	5
TAP	42	144	1
TAP	42	144	7
BRK	42	288	0
BRK	42	288	6
TAP	43	0	0
TAP	43	0	7
TAP	43	96	1
STR	43	144	2
SI_	43	144	2	96	96	7
STR	43	336	3
SI_	43	336	3	96	96	6
HLD	44	336	0	96
HLD	45	48	7	96
HLD	45	144	6	144
HLD	45	288	5	192
HLD	46	96	4	192
TAP	46	288	3
BRK	47	0	1
BRK	47	0	6
TAP	47	96	6
TAP	47	192	6
TAP	47	288	6
BRK	48	0	0
BRK	48	0	5
TAP	48	96	0
TAP	48	192	0
TAP	48	288	0
BRK	49	0	3
BRK	49	0	7
TAP	49	96	7
TAP	49	192	7
TAP	49	288	7
BRK	50	0	1
BRK	50	0	3
STR	50	96	3
SI_	50	96	3	96	96	7
HLD	51	0	2	288
TAP	51	0	7
TAP	51	96	1
TAP	51	192	3
TAP	51	288	5
HLD	52	0	5	288
TAP	52	0	6
TAP	52	96	0
TAP	52	192	2
STR	52	288	4
SI_	52	288	4	96	192	1
STR	53	288	3
SI_	53	288	3	96	192	6
BRK	54	336	0
BRK	54	336	7

T_REC_TAP	97
T_REC_BRK	12
T_REC_XTP	0
T_REC_HLD	45
T_REC_XHO	0
T_REC_STR	19
T_REC_BST	0
T_REC_XST	0
T_REC_TTP	0
T_REC_THO	0
T_REC_SLD	19
T_REC_ALL	192
T_NUM_TAP	116
T_NUM_BRK	12
T_NUM_HLD	45
T_NUM_SLD	19
T_NUM_ALL	192
T_JUDGE_TAP	128
T_JUDGE_HLD	148
T_JUDGE_SLD	19
T_JUDGE_ALL	295
TTM_EACHPAIRS	33
TTM_SCR_TAP	58000
TTM_SCR_BRK	31200
TTM_SCR_HLD	45000
TTM_SCR_SLD	28500
TTM_SCR_ALL	162700
TTM_SCR_S	156700
TTM_SCR_SS	161500
TTM_RAT_ACV	10074

