VERSION	0.00.00	1.03.00
FES_MODE	0
BPM_DEF	155.000	155.000	155.000	155.000
MET_DEF	4	4
RESOLUTION	384
CLK_DEF	384
COMPATIBLE_CODE	MA2

BPM	0	0	155.000
MET	0	0	4	4

HLD	6	0	3	288
HLD	6	0	4	288
HLD	7	0	2	288
HLD	7	0	5	288
HLD	8	0	1	288
HLD	8	0	6	288
STR	9	0	0
SCR	9	0	0	96	120	3
STR	9	0	7
SCL	9	0	7	96	120	4
TAP	10	0	5
TAP	11	0	2
TAP	11	0	3
TAP	12	0	2
TAP	13	0	4
TAP	13	0	5
TAP	14	0	6
TAP	15	0	0
TAP	15	0	1
TAP	16	0	1
TAP	17	0	6
TAP	17	0	7
TAP	18	0	0
TAP	18	0	1
TAP	18	144	0
TAP	18	144	2
TAP	19	0	1
TAP	19	0	2
TAP	19	144	1
TAP	19	144	3
TAP	20	0	3
TAP	20	0	4
TAP	20	144	3
TAP	20	144	5
TAP	21	0	4
TAP	21	0	5
TAP	21	144	4
TAP	21	144	6
TAP	22	0	6
TAP	22	0	7
TAP	22	144	0
TAP	22	144	6
TAP	23	0	0
TAP	23	0	7
TAP	23	144	1
TAP	23	144	7
HLD	24	0	1	288
HLD	24	0	6	288
HLD	25	0	2	288
HLD	25	0	5	288
STR	26	0	3
SCL	26	0	3	96	120	0
STR	26	0	4
SCR	26	0	4	96	120	7
TAP	27	96	6
TAP	27	96	7
TAP	27	288	2
TAP	27	288	3
TAP	28	96	0
TAP	28	96	1
TAP	28	288	4
TAP	28	288	5
TAP	29	96	6
TAP	29	96	7
TAP	29	288	2
TAP	29	288	3
TAP	30	96	0
TAP	30	96	1
TAP	30	288	4
TAP	30	288	5
TAP	31	0	0
TAP	31	96	1
TAP	31	192	7
TAP	31	288	6
TAP	32	0	3
TAP	32	96	2
TAP	32	192	4
TAP	32	288	5
TAP	33	0	0
TAP	33	96	1
TAP	33	192	4
TAP	33	288	3
TAP	34	0	2
TAP	34	96	0
TAP	34	96	1
TAP	34	192	1
TAP	34	192	2
TAP	34	288	2
TAP	34	288	3
TAP	35	96	6
TAP	35	96	7
TAP	35	288	2
TAP	35	288	3
TAP	36	96	0
TAP	36	96	1
TAP	36	288	4
TAP	36	288	5
TAP	37	96	6
TAP	37	96	7
TAP	37	288	2
TAP	37	288	3
TAP	38	96	0
TAP	38	96	1
TAP	38	288	4
TAP	38	288	5
TAP	39	0	1
TAP	39	96	0
TAP	39	192	6
TAP	39	288	7
TAP	40	0	2
TAP	40	96	3
TAP	40	192	5
TAP	40	288	4
TAP	41	0	3
TAP	41	96	4
TAP	41	192	5
TAP	41	288	6
TAP	42	0	7
TAP	42	96	6
TAP	42	96	7
TAP	42	192	5
TAP	42	192	6
TAP	42	288	4
TAP	42	288	5
TAP	43	0	0
TAP	43	96	6
TAP	43	96	7
TAP	43	192	4
TAP	43	288	2
TAP	43	288	3
TAP	44	0	7
TAP	44	96	0
TAP	44	96	1
TAP	44	192	3
TAP	44	288	4
TAP	44	288	5
TAP	45	0	0
TAP	45	96	6
TAP	45	96	7
TAP	45	192	4
TAP	45	288	2
TAP	45	288	3
TAP	46	0	7
TAP	46	96	0
TAP	46	96	1
TAP	46	192	0
TAP	46	192	7
TAP	46	288	1
TAP	46	288	6
HLD	47	0	1	288
HLD	47	0	6	288
HLD	48	0	2	288
HLD	48	0	3	288
HLD	49	0	4	288
HLD	49	0	5	288
HLD	50	0	3	192
HLD	50	0	4	192
HLD	51	0	1	288
HLD	51	0	6	288
HLD	52	0	2	288
HLD	52	0	5	288
HLD	53	0	3	288
HLD	53	0	4	288
STR	54	0	3
SCL	54	0	3	96	120	0
STR	54	0	4
SCR	54	0	4	96	120	7
BRK	54	336	2
BRK	54	336	5

T_REC_TAP	131
T_REC_BRK	2
T_REC_XTP	0
T_REC_HLD	24
T_REC_XHO	0
T_REC_STR	6
T_REC_BST	0
T_REC_XST	0
T_REC_TTP	0
T_REC_THO	0
T_REC_SLD	6
T_REC_ALL	169
T_NUM_TAP	137
T_NUM_BRK	2
T_NUM_HLD	24
T_NUM_SLD	6
T_NUM_ALL	169
T_JUDGE_TAP	139
T_JUDGE_HLD	140
T_JUDGE_SLD	6
T_JUDGE_ALL	285
TTM_EACHPAIRS	63
TTM_SCR_TAP	68500
TTM_SCR_BRK	5200
TTM_SCR_HLD	24000
TTM_SCR_SLD	9000
TTM_SCR_ALL	106700
TTM_SCR_S	103350
TTM_SCR_SS	106500
TTM_RAT_ACV	10018

