VERSION	0.00.00	1.03.00
FES_MODE	0
BPM_DEF	143.000	143.000	143.000	143.000
MET_DEF	4	4
RESOLUTION	384
CLK_DEF	384
COMPATIBLE_CODE	MA2

BPM	0	0	143.000
MET	0	0	4	4

TAP	2	48	0
TAP	2	48	4
TAP	2	96	1
TAP	2	96	5
STR	2	144	2
SI_	2	144	2	96	48	7
STR	2	144	6
SI_	2	144	6	96	48	3
STR	3	0	6
SXL	3	0	6	96	96	7
STR	3	96	7
SI_	3	96	7	96	96	4
STR	4	0	1
SCL	4	0	1	96	96	6
STR	4	96	6
SI_	4	96	6	96	96	2
STR	4	192	2
SCR	4	192	2	96	96	5
STR	5	96	6
SXL	5	96	6	96	96	7
STR	5	192	7
SI_	5	192	7	96	96	4
STR	6	0	3
SCL	6	0	3	96	192	7
STR	7	0	0
SI_	7	0	0	96	48	5
STR	7	48	5
SI_	7	48	5	96	48	1
STR	7	96	1
SI_	7	96	1	96	48	4
TAP	8	48	4
TAP	8	48	6
TAP	8	96	0
TAP	8	96	7
TAP	8	144	1
TAP	8	144	3
HLD	8	192	2	72
HLD	8	264	1	72
TAP	8	336	0
STR	9	0	7
SI_	9	0	7	96	48	2
STR	9	48	2
SI_	9	48	2	96	48	6
STR	9	96	6
SI_	9	96	6	96	48	3
TAP	10	96	0
TAP	10	96	1
TAP	10	192	4
TAP	10	192	5
TAP	10	288	2
TAP	10	288	7
STR	11	0	3
SCR	11	0	3	96	96	1
TAP	11	192	5
TAP	11	336	1
TAP	11	336	3
TAP	12	0	0
TAP	12	0	7
TAP	12	48	4
TAP	12	48	6
HLD	12	144	5	96
HLD	12	240	3	96
TAP	12	336	1
STR	13	0	0
SI_	13	0	0	96	48	5
STR	13	48	5
SI_	13	48	5	96	48	1
STR	13	96	1
SI_	13	96	1	96	48	4
STR	13	144	4
SXL	13	144	4	96	240	0
SXR	13	144	4	96	240	0
STR	14	192	0
SI_	14	192	0	96	48	4
STR	14	192	4
SCR	14	192	4	96	48	0
STR	15	0	3
SI_	15	0	3	96	48	1
STR	15	0	7
SI_	15	0	7	96	48	5
STR	15	192	1
SI_	15	192	1	96	48	4
STR	15	192	5
SI_	15	192	5	96	48	0
STR	16	0	0
SCL	16	0	0	96	48	5
STR	16	0	4
SCL	16	0	4	96	48	1
STR	16	192	1
SV_	16	192	1	96	48	3
STR	16	192	5
SV_	16	192	5	96	48	7
STR	17	0	3
SUL	17	0	3	96	48	6
STR	17	0	7
SUL	17	0	7	96	48	2
STR	17	192	2
SCR	17	192	2	96	48	5
STR	17	192	6
SCR	17	192	6	96	48	1
TAP	18	0	3
TAP	18	48	4
TAP	18	96	3
TAP	18	144	1
TAP	18	144	6
TAP	18	240	0
TAP	18	240	7
TAP	18	288	2
TAP	18	288	5
STR	19	0	3
SI_	19	0	3	96	48	1
STR	19	0	7
SI_	19	0	7	96	48	5
STR	19	192	1
SUR	19	192	1	96	48	5
STR	19	192	5
SUR	19	192	5	96	48	1
STR	20	0	1
SCL	20	0	1	96	48	6
STR	20	0	5
SCL	20	0	5	96	48	2
STR	20	192	2
SV_	20	192	2	96	48	4
STR	20	192	6
SV_	20	192	6	96	48	0
STR	21	0	0
SUR	21	0	0	96	48	5
STR	21	0	4
SUR	21	0	4	96	48	1
STR	21	192	1
SCL	21	192	1	96	48	6
STR	21	192	5
SCL	21	192	5	96	48	2
STR	22	0	7
SCL	22	0	7	96	192	0
TAP	23	0	0
TAP	23	0	5
TAP	23	48	6
TAP	23	72	7
TAP	23	96	5
TAP	23	144	1
TAP	23	168	0
TAP	23	192	2
TAP	23	240	5
TAP	23	264	4
TAP	23	288	6
TAP	23	336	3
TAP	23	336	7
STR	24	0	3
SI_	24	0	3	96	48	0
STR	24	0	7
SI_	24	0	7	96	48	4
TAP	24	96	3
TAP	24	96	7
STR	24	192	0
SV_	24	192	0	96	48	3
STR	24	192	4
SV_	24	192	4	96	48	7
STR	24	288	0
SLL	24	288	0	96	96	3
STR	24	288	4
SLL	24	288	4	96	96	7
TAP	25	240	2
TAP	25	240	6
TAP	25	288	1
TAP	25	288	5
TAP	25	336	0
TAP	25	336	4
STR	26	0	0
SI_	26	0	0	96	48	3
STR	26	0	4
SI_	26	0	4	96	48	7
TAP	26	96	0
TAP	26	96	4
STR	26	192	3
SV_	26	192	3	96	48	0
STR	26	192	7
SV_	26	192	7	96	48	4
STR	26	288	3
SLR	26	288	3	96	96	0
STR	26	288	7
SLR	26	288	7	96	96	4
TAP	27	240	0
TAP	27	240	5
STR	27	288	6
SI_	27	288	6	96	48	3
STR	27	288	7
SI_	27	288	7	96	48	2
TAP	27	336	0
TAP	27	336	5
TAP	28	0	6
TAP	28	0	7
TAP	28	144	0
TAP	28	144	5
TAP	28	240	2
TAP	28	240	7
STR	28	288	0
SI_	28	288	0	96	48	5
STR	28	288	1
SI_	28	288	1	96	48	4
TAP	28	336	2
TAP	28	336	7
TAP	29	0	0
TAP	29	0	1
TAP	29	96	3
TAP	29	96	6
TAP	29	192	0
TAP	29	192	2
TAP	29	288	5
TAP	29	288	7
STR	30	0	0
SI_	30	0	0	96	48	3
SI_	30	0	0	96	48	5
TAP	30	96	0
STR	30	192	7
SI_	30	192	7	96	48	2
SI_	30	192	7	96	48	4
TAP	30	288	7
STR	31	0	0
SSR	31	0	0	96	192	4
STR	31	0	4
SSL	31	0	4	96	192	0
TAP	31	48	0
TAP	31	48	4
TAP	31	336	2
TAP	31	336	6
STR	32	0	2
SI_	32	0	2	96	48	7
STR	32	0	6
SI_	32	0	6	96	48	3
TAP	32	96	2
TAP	32	96	6
STR	32	192	3
SV_	32	192	3	96	48	6
STR	32	192	7
SV_	32	192	7	96	48	2
STR	32	288	3
SLL	32	288	3	96	96	6
STR	32	288	7
SLL	32	288	7	96	96	2
TAP	33	240	3
TAP	33	240	7
TAP	33	288	2
TAP	33	288	6
TAP	33	336	1
TAP	33	336	5
STR	34	0	1
SI_	34	0	1	96	48	4
STR	34	0	5
SI_	34	0	5	96	48	0
TAP	34	96	1
TAP	34	96	5
STR	34	192	0
SV_	34	192	0	96	48	5
STR	34	192	4
SV_	34	192	4	96	48	1
STR	34	288	0
SLR	34	288	0	96	96	5
STR	34	288	4
SLR	34	288	4	96	96	1
TAP	35	240	0
TAP	35	240	5
STR	35	288	6
SI_	35	288	6	96	48	3
STR	35	288	7
SI_	35	288	7	96	48	2
TAP	35	336	0
TAP	35	336	5
TAP	36	0	6
TAP	36	0	7
TAP	36	144	0
TAP	36	144	5
TAP	36	240	2
TAP	36	240	7
STR	36	288	0
SI_	36	288	0	96	48	5
STR	36	288	1
SI_	36	288	1	96	48	4
TAP	36	336	2
TAP	36	336	7
TAP	37	0	0
TAP	37	0	1
TAP	37	144	2
TAP	37	144	7
STR	37	288	0
SI_	37	288	0	96	48	5
STR	37	288	7
SI_	37	288	7	96	48	2
TAP	38	0	0
TAP	38	0	7
TAP	38	144	0
TAP	38	144	7
TAP	38	240	4
TAP	38	240	6
TAP	38	288	3
TAP	38	288	4
TAP	38	336	1
TAP	38	336	3
TAP	39	0	0
TAP	39	0	2
TAP	39	96	3
TAP	39	96	4
TAP	39	144	5
TAP	39	144	7
TAP	39	240	0
TAP	39	240	7
TAP	39	288	3
TAP	39	288	4
BST	39	336	1
SCR	39	336	1	96	240	7
BST	39	336	6
SCL	39	336	6	96	240	0
HLD	41	0	2	72
HLD	41	72	3	72
HLD	41	144	4	72
HLD	41	216	5	72
STR	41	288	6
SI_	41	288	6	96	48	2
HLD	42	0	0	72
HLD	42	72	7	72
HLD	42	144	6	72
HLD	42	216	5	72
STR	42	288	4
SI_	42	288	4	96	48	1
HLD	43	0	7	72
HLD	43	72	0	72
HLD	43	144	1	72
HLD	43	216	2	72
STR	43	288	3
SI_	43	288	3	96	48	7
HLD	44	0	0	72
TAP	44	72	2
HLD	44	144	7	72
TAP	44	216	5
TAP	44	288	1
TAP	44	288	6
TAP	44	360	6
HLD	45	0	6	72
HLD	45	72	7	72
HLD	45	144	0	72
HLD	45	216	1	72
STR	45	288	2
SI_	45	288	2	96	48	6
TAP	45	360	4
HLD	46	0	4	72
HLD	46	72	3	72
HLD	46	144	2	72
HLD	46	216	1	72
STR	46	288	0
SI_	46	288	0	96	48	5
TAP	46	360	3
HLD	47	0	3	72
HLD	47	72	4	72
HLD	47	144	5	72
HLD	47	216	6	72
STR	47	288	7
SI_	47	288	7	96	48	3
TAP	47	360	4
HLD	48	0	4	72
TAP	48	72	6
HLD	48	144	3	72
TAP	48	216	1
TAP	48	288	1
TAP	48	288	6
STR	49	0	4
SCL	49	0	4	96	192	5
STR	49	0	6
SUR	49	0	6	96	192	4
STR	50	0	1
SUL	50	0	1	96	192	3
STR	50	0	3
SCR	50	0	3	96	192	2
STR	51	0	1
SCR	51	0	1	96	192	0
STR	51	0	7
SXR	51	0	7	96	192	0
STR	52	0	0
SXL	52	0	0	96	192	7
STR	52	0	6
SCL	52	0	6	96	192	7
STR	53	0	4
SCL	53	0	4	96	192	5
SUL	53	0	4	96	192	5
TAP	53	0	5
TAP	54	0	2
STR	54	0	3
SCR	54	0	3	96	192	2
SUR	54	0	3	96	192	2
TAP	55	0	0
STR	55	0	1
SCR	55	0	1	96	192	0
SXL	55	0	1	96	192	0
STR	56	0	6
SCL	56	0	6	96	192	7
SXR	56	0	6	96	192	7
TAP	56	0	7
TAP	57	0	2
TAP	57	0	7
TAP	57	48	1
TAP	57	72	0
TAP	57	96	2
TAP	57	144	6
TAP	57	168	7
TAP	57	192	5
TAP	57	240	2
TAP	57	264	3
TAP	57	288	1
TAP	57	336	0
TAP	57	336	4
STR	58	0	0
SUR	58	0	0	96	48	4
STR	58	0	4
SUR	58	0	4	96	48	0
STR	58	96	0
SCL	58	96	0	96	48	5
STR	58	96	4
SCL	58	96	4	96	48	1
STR	58	192	0
SV_	58	192	0	96	48	3
STR	58	192	4
SV_	58	192	4	96	48	7
STR	58	288	0
SLL	58	288	0	96	96	3
STR	58	288	4
SLL	58	288	4	96	96	7
TAP	59	240	1
TAP	59	240	5
TAP	59	288	2
TAP	59	288	6
TAP	59	336	3
TAP	59	336	7
STR	60	0	3
SUL	60	0	3	96	48	7
STR	60	0	7
SUL	60	0	7	96	48	3
STR	60	96	3
SCR	60	96	3	96	48	6
STR	60	96	7
SCR	60	96	7	96	48	2
STR	60	192	3
SV_	60	192	3	96	48	0
STR	60	192	7
SV_	60	192	7	96	48	4
STR	60	288	3
SLR	60	288	3	96	96	0
STR	60	288	7
SLR	60	288	7	96	96	4
TAP	61	240	1
TAP	61	240	4
STR	61	288	2
SI_	61	288	2	96	48	7
STR	61	288	3
SI_	61	288	3	96	48	6
TAP	61	336	1
TAP	61	336	4
TAP	62	0	2
TAP	62	0	3
TAP	62	144	1
TAP	62	144	4
TAP	62	240	3
TAP	62	240	6
STR	62	288	4
SI_	62	288	4	96	48	1
STR	62	288	5
SI_	62	288	5	96	48	0
TAP	62	336	3
TAP	62	336	6
TAP	63	0	4
TAP	63	0	5
TAP	63	96	2
TAP	63	96	7
TAP	63	192	4
TAP	63	192	6
TAP	63	288	1
TAP	63	288	3
STR	64	0	4
SI_	64	0	4	96	48	1
SCR	64	0	4	96	48	7
TAP	64	96	4
STR	64	192	3
SI_	64	192	3	96	48	6
SCL	64	192	3	96	48	0
TAP	64	288	3
TAP	65	0	2
TAP	65	0	6
TAP	65	48	1
TAP	65	48	5
TAP	65	96	0
TAP	65	96	4
HLD	65	144	3	144
HLD	65	144	7	144
TAP	65	336	3
TAP	65	336	7
STR	66	0	3
SUR	66	0	3	96	48	7
STR	66	0	7
SUR	66	0	7	96	48	3
STR	66	96	3
SCL	66	96	3	96	48	0
STR	66	96	7
SCL	66	96	7	96	48	4
STR	66	192	3
SV_	66	192	3	96	48	6
STR	66	192	7
SV_	66	192	7	96	48	2
STR	66	288	3
SLL	66	288	3	96	96	6
STR	66	288	7
SLL	66	288	7	96	96	2
TAP	67	240	1
TAP	67	240	5
TAP	67	288	2
TAP	67	288	6
TAP	67	336	3
TAP	67	336	7
STR	68	0	0
SUL	68	0	0	96	48	4
STR	68	0	4
SUL	68	0	4	96	48	0
STR	68	96	0
SCR	68	96	0	96	48	3
STR	68	96	4
SCR	68	96	4	96	48	7
STR	68	192	0
SV_	68	192	0	96	48	5
STR	68	192	4
SV_	68	192	4	96	48	1
STR	68	288	0
SLR	68	288	0	96	96	5
STR	68	288	4
SLR	68	288	4	96	96	1
TAP	69	240	1
TAP	69	240	4
STR	69	288	2
SCL	69	288	2	96	48	7
STR	69	288	3
SCR	69	288	3	96	48	6
TAP	69	336	1
TAP	69	336	4
TAP	70	0	2
TAP	70	0	3
TAP	70	144	2
TAP	70	144	7
TAP	70	240	3
TAP	70	240	6
STR	70	288	4
SCL	70	288	4	96	48	1
STR	70	288	5
SCR	70	288	5	96	48	0
TAP	70	336	3
TAP	70	336	6
TAP	71	0	4
TAP	71	0	5
TAP	71	144	0
TAP	71	144	5
STR	71	288	3
SI_	71	288	3	96	48	6
STR	71	288	4
SI_	71	288	4	96	48	1
TAP	72	0	3
TAP	72	0	4
TAP	72	144	0
TAP	72	144	7
TAP	72	240	5
TAP	72	240	7
TAP	72	288	0
TAP	72	288	7
TAP	72	336	0
TAP	72	336	2
TAP	73	0	1
TAP	73	0	3
TAP	73	96	0
TAP	73	96	7
TAP	73	144	4
TAP	73	144	6
TAP	73	240	3
TAP	73	240	4
TAP	73	288	0
TAP	73	288	7
BST	73	336	2
SCL	73	336	2	96	240	4
BST	73	336	5
SCR	73	336	5	96	240	3
TAP	75	0	3
TAP	75	0	4
TAP	75	48	2
TAP	75	72	3
TAP	75	96	1
TAP	75	144	5
TAP	75	168	4
TAP	75	192	6
TAP	75	240	0
TAP	75	264	7
TAP	75	288	0
BRK	75	336	1
BRK	75	336	6

T_REC_TAP	247
T_REC_BRK	2
T_REC_XTP	0
T_REC_HLD	34
T_REC_XHO	0
T_REC_STR	148
T_REC_BST	4
T_REC_XST	0
T_REC_TTP	0
T_REC_THO	0
T_REC_SLD	161
T_REC_ALL	596
T_NUM_TAP	395
T_NUM_BRK	6
T_NUM_HLD	34
T_NUM_SLD	161
T_NUM_ALL	596
T_JUDGE_TAP	401
T_JUDGE_HLD	70
T_JUDGE_SLD	161
T_JUDGE_ALL	632
TTM_EACHPAIRS	164
TTM_SCR_TAP	197500
TTM_SCR_BRK	15600
TTM_SCR_HLD	34000
TTM_SCR_SLD	241500
TTM_SCR_ALL	488600
TTM_SCR_S	473400
TTM_SCR_SS	488000
TTM_RAT_ACV	10012

