VERSION	0.00.00	1.03.00
FES_MODE	0
BPM_DEF	143.000	143.000	143.000	143.000
MET_DEF	4	4
RESOLUTION	384
CLK_DEF	384
COMPATIBLE_CODE	MA2

BPM	0	0	143.000
MET	0	0	4	4

TAP	2	48	0
TAP	2	48	4
TAP	2	96	1
TAP	2	96	5
TAP	2	144	3
TAP	2	144	7
HLD	2	240	2	816
HLD	2	240	6	432
STR	4	0	6
SI_	4	0	6	96	480	3
STR	5	0	2
SI_	5	0	2	96	480	7
HLD	7	0	1	312
STR	7	312	0
SI_	7	312	0	96	48	4
TAP	7	360	0
HLD	8	0	7	312
STR	8	312	6
SI_	8	312	6	96	48	2
TAP	8	360	6
HLD	9	0	5	312
STR	9	312	4
SI_	9	312	4	96	48	0
TAP	9	360	4
HLD	10	0	3	312
STR	10	312	2
SI_	10	312	2	96	48	6
TAP	10	360	2
HLD	11	0	1	192
TAP	11	144	0
HLD	11	192	0	120
STR	11	312	7
SI_	11	312	7	96	48	3
TAP	11	360	7
HLD	12	0	6	192
TAP	12	144	5
HLD	12	192	5	120
STR	12	312	4
SI_	12	312	4	96	48	0
TAP	12	360	4
HLD	13	0	3	192
TAP	13	144	2
HLD	13	192	2	120
STR	13	312	1
SI_	13	312	1	96	48	5
TAP	13	360	1
HLD	14	0	0	192
STR	14	192	7
SI_	14	192	7	96	48	3
STR	15	0	1
SCR	15	0	1	96	48	4
HLD	15	96	0	96
STR	15	192	5
SCR	15	192	5	96	48	0
HLD	15	288	4	96
STR	16	0	1
SCR	16	0	1	96	48	4
HLD	16	96	1	96
STR	16	192	5
SCR	16	192	5	96	48	0
TAP	16	240	5
HLD	16	288	5	96
STR	17	0	2
SCL	17	0	2	96	48	7
HLD	17	96	3	96
STR	17	192	6
SCL	17	192	6	96	48	3
HLD	17	288	7	96
STR	18	0	2
SCL	18	0	2	96	48	7
HLD	18	96	2	96
STR	18	192	6
SCL	18	192	6	96	48	3
TAP	18	240	6
HLD	18	288	6	96
HLD	19	0	1	144
STR	19	144	2
SI_	19	144	2	96	48	7
STR	19	288	0
SCR	19	288	0	96	48	3
TAP	20	96	5
TAP	20	144	4
STR	20	240	5
SI_	20	240	5	96	96	0
STR	21	0	7
SI_	21	0	7	96	96	3
STR	21	144	1
SCL	21	144	1	96	192	6
STR	21	288	4
SI_	21	288	4	96	288	1
TAP	23	336	7
STR	24	0	7
SCL	24	0	7	96	48	4
STR	24	96	7
SI_	24	96	7	96	48	3
STR	24	192	7
SI_	24	192	7	96	48	4
STR	24	288	7
SI_	24	288	7	96	48	2
TAP	25	0	7
TAP	25	240	1
TAP	25	288	2
TAP	25	336	3
STR	26	0	0
SCR	26	0	0	96	48	3
STR	26	96	0
SI_	26	96	0	96	48	4
STR	26	192	0
SI_	26	192	0	96	48	3
STR	26	288	0
SI_	26	288	0	96	48	5
TAP	27	0	0
STR	27	240	7
SI_	27	240	7	96	48	4
STR	27	288	4
SI_	27	288	4	96	48	1
STR	28	240	0
SI_	28	240	0	96	48	3
STR	28	288	3
SI_	28	288	3	96	48	6
HLD	29	96	0	96
HLD	29	192	7	96
HLD	29	288	6	96
HLD	30	0	5	288
HLD	30	192	2	96
STR	31	0	2
SI_	31	0	2	96	96	6
STR	31	0	5
SI_	31	0	5	96	96	1
TAP	31	336	6
STR	32	0	6
SCL	32	0	6	96	48	3
STR	32	96	6
SI_	32	96	6	96	48	2
STR	32	192	6
SI_	32	192	6	96	48	3
STR	32	288	6
SI_	32	288	6	96	48	1
TAP	33	0	6
TAP	33	240	3
TAP	33	288	2
TAP	33	336	1
STR	34	0	1
SCR	34	0	1	96	48	4
STR	34	96	1
SI_	34	96	1	96	48	5
STR	34	192	1
SI_	34	192	1	96	48	4
STR	34	288	1
SI_	34	288	1	96	48	6
TAP	35	0	1
STR	35	288	6
SI_	35	288	6	96	192	2
STR	36	96	0
SI_	36	96	0	96	192	4
STR	36	288	1
SI_	36	288	1	96	192	5
STR	37	96	3
SI_	37	96	3	96	192	7
STR	37	288	6
SCL	37	288	6	96	192	3
TAP	38	240	0
TAP	38	288	1
HLD	38	336	2	144
HLD	39	0	7	96
STR	39	144	2
SCL	39	144	2	96	96	7
STR	39	144	7
SCL	39	144	7	96	96	4
HLD	40	0	6	72
HLD	40	72	5	72
HLD	40	144	4	72
TAP	40	216	5
TAP	40	288	4
TAP	40	288	5
HLD	41	0	1	72
HLD	41	72	2	72
HLD	41	144	3	72
TAP	41	216	2
TAP	41	288	2
TAP	41	288	3
TAP	41	360	7
HLD	42	0	7	72
HLD	42	72	6	72
HLD	42	144	5	72
TAP	42	216	6
TAP	42	288	6
TAP	42	288	7
TAP	42	360	0
HLD	43	0	0	72
HLD	43	72	1	72
HLD	43	144	2	72
TAP	43	216	1
TAP	43	288	0
TAP	43	288	1
TAP	43	360	6
HLD	44	0	6	72
HLD	44	72	4	72
HLD	44	144	2	72
TAP	44	216	1
TAP	44	288	1
TAP	44	288	3
TAP	44	360	1
TAP	45	0	0
TAP	45	48	0
TAP	45	72	1
TAP	45	120	6
TAP	45	144	7
TAP	45	192	7
TAP	45	216	6
TAP	45	264	6
TAP	45	288	5
TAP	45	288	6
TAP	45	360	7
TAP	46	0	6
TAP	46	48	6
TAP	46	72	7
TAP	46	120	0
TAP	46	144	1
TAP	46	192	1
TAP	46	216	0
TAP	46	264	1
TAP	46	288	1
TAP	46	288	2
TAP	46	360	2
TAP	47	0	3
TAP	47	48	3
TAP	47	72	2
TAP	47	120	5
TAP	47	144	4
TAP	47	192	4
TAP	47	216	5
TAP	47	264	5
TAP	47	288	5
TAP	47	288	6
TAP	47	360	4
TAP	48	0	5
TAP	48	48	5
TAP	48	72	4
TAP	48	120	3
TAP	48	144	2
TAP	48	192	2
TAP	48	216	3
TAP	48	264	2
TAP	48	288	1
TAP	48	288	2
HLD	49	0	0	384
HLD	50	0	2	384
HLD	51	0	4	336
HLD	51	336	6	192
BRK	52	144	7
HLD	52	288	7	96
HLD	53	0	5	144
HLD	53	144	3	144
HLD	53	288	1	96
STR	54	0	7
SI_	54	0	7	96	96	3
STR	54	240	5
SI_	54	240	5	96	96	0
STR	55	0	2
SI_	55	0	2	96	96	7
STR	55	336	0
SCL	55	336	0	96	288	5
STR	55	336	7
SCR	55	336	7	96	288	2
TAP	57	336	7
STR	58	0	7
SI_	58	0	7	96	48	2
STR	58	96	7
SI_	58	96	7	96	48	4
STR	58	192	3
SI_	58	192	3	96	48	0
STR	58	288	3
SI_	58	288	3	96	48	6
TAP	59	240	2
TAP	59	288	1
TAP	59	336	0
STR	60	0	0
SI_	60	0	0	96	48	5
STR	60	96	0
SI_	60	96	0	96	48	3
STR	60	192	4
SI_	60	192	4	96	48	7
STR	60	288	4
SI_	60	288	4	96	48	1
STR	61	240	0
SI_	61	240	0	96	48	5
STR	61	288	5
SI_	61	288	5	96	48	1
STR	61	336	1
SI_	61	336	1	96	48	4
STR	62	240	7
SI_	62	240	7	96	48	2
STR	62	288	2
SI_	62	288	2	96	48	6
STR	62	336	6
SI_	62	336	6	96	48	3
HLD	63	192	7	96
HLD	63	288	0	96
HLD	64	0	1	288
HLD	64	192	6	96
STR	65	0	1
SI_	65	0	1	96	96	5
STR	65	0	6
SI_	65	0	6	96	96	2
TAP	65	336	7
STR	66	0	7
SCR	66	0	7	96	48	2
STR	66	96	7
SCL	66	96	7	96	48	4
STR	66	192	3
SCR	66	192	3	96	48	6
STR	66	288	3
SCL	66	288	3	96	48	0
TAP	67	192	4
TAP	67	240	3
TAP	67	288	2
TAP	67	336	1
STR	68	0	0
SCL	68	0	0	96	48	5
STR	68	96	0
SCR	68	96	0	96	48	3
STR	68	192	4
SCL	68	192	4	96	48	1
STR	68	288	4
SCR	68	288	4	96	48	7
STR	69	288	1
SI_	69	288	1	96	192	5
STR	70	96	7
SI_	70	96	7	96	192	3
STR	70	288	6
SI_	70	288	6	96	192	2
STR	71	96	4
SI_	71	96	4	96	192	0
STR	71	288	1
SCR	71	288	1	96	192	4
TAP	72	240	7
TAP	72	288	6
HLD	72	336	5	144
HLD	73	0	0	96
STR	73	144	0
SCR	73	144	0	96	48	3
STR	73	144	5
SCR	73	144	5	96	48	0
HLD	73	336	1	720
HLD	73	336	6	720
BRK	75	336	0
BRK	75	336	4

T_REC_TAP	107
T_REC_BRK	3
T_REC_XTP	0
T_REC_HLD	60
T_REC_XHO	0
T_REC_STR	89
T_REC_BST	0
T_REC_XST	0
T_REC_TTP	0
T_REC_THO	0
T_REC_SLD	89
T_REC_ALL	348
T_NUM_TAP	196
T_NUM_BRK	3
T_NUM_HLD	60
T_NUM_SLD	89
T_NUM_ALL	348
T_JUDGE_TAP	199
T_JUDGE_HLD	231
T_JUDGE_SLD	89
T_JUDGE_ALL	519
TTM_EACHPAIRS	20
TTM_SCR_TAP	98000
TTM_SCR_BRK	7800
TTM_SCR_HLD	60000
TTM_SCR_SLD	133500
TTM_SCR_ALL	299300
TTM_SCR_S	290050
TTM_SCR_SS	299000
TTM_RAT_ACV	10010

