VERSION	0.00.00	1.03.00
FES_MODE	0
BPM_DEF	143.000	143.000	143.000	143.000
MET_DEF	4	4
RESOLUTION	384
CLK_DEF	384
COMPATIBLE_CODE	MA2

BPM	0	0	143.000
MET	0	0	4	4

TAP	2	48	0
STR	2	96	0
SI_	2	96	0	96	48	4
HLD	3	96	1	384
TAP	3	192	7
TAP	4	0	7
HLD	4	96	5	384
TAP	4	192	3
TAP	5	0	3
HLD	5	96	2	192
TAP	5	192	0
HLD	5	288	6	192
TAP	6	0	4
STR	6	96	3
SI_	6	96	3	96	96	7
HLD	7	0	4	192
TAP	7	336	3
TAP	7	336	5
TAP	8	0	3
TAP	8	0	5
TAP	8	192	0
TAP	8	264	1
TAP	8	336	2
HLD	9	0	3	192
TAP	9	336	2
TAP	9	336	4
TAP	10	0	2
TAP	10	0	4
TAP	10	96	0
TAP	10	96	4
TAP	10	192	2
TAP	10	192	6
TAP	10	288	1
TAP	10	288	5
HLD	11	0	3	192
HLD	11	0	7	192
TAP	11	336	3
TAP	11	336	7
HLD	12	0	2	192
HLD	12	0	6	192
TAP	12	336	2
TAP	12	336	6
HLD	13	0	1	576
TAP	13	0	5
STR	13	144	2
SI_	13	144	2	96	336	7
TAP	15	0	0
TAP	15	0	4
TAP	15	48	1
TAP	15	96	0
TAP	15	96	2
TAP	15	192	2
TAP	15	192	4
TAP	15	240	5
TAP	15	288	4
TAP	15	288	6
TAP	16	0	1
TAP	16	0	5
TAP	16	96	2
TAP	16	96	6
TAP	16	192	0
TAP	16	192	4
TAP	16	288	2
TAP	16	288	3
TAP	17	0	1
TAP	17	0	7
TAP	17	48	6
TAP	17	96	5
TAP	17	96	7
TAP	17	192	3
TAP	17	192	5
TAP	17	240	2
TAP	17	288	1
TAP	17	288	3
TAP	18	0	2
TAP	18	0	6
TAP	18	96	1
TAP	18	96	5
TAP	18	192	3
TAP	18	192	7
TAP	18	288	4
TAP	18	288	5
STR	19	0	1
SI_	19	0	1	96	48	5
STR	19	144	7
SI_	19	144	7	96	48	2
TAP	20	0	5
TAP	20	48	4
TAP	20	96	3
TAP	20	144	2
HLD	20	240	0	144
TAP	21	0	1
TAP	21	48	2
HLD	21	144	7	144
TAP	21	288	6
STR	21	336	5
SI_	21	336	5	96	240	0
STR	23	0	0
SCR	23	0	0	96	96	3
STR	23	0	4
SCR	23	0	4	96	96	7
TAP	24	0	1
TAP	24	48	0
TAP	24	96	1
TAP	24	96	7
TAP	24	192	6
TAP	24	240	7
STR	24	288	0
SI_	24	288	0	96	144	4
STR	24	288	6
SI_	24	288	6	96	144	2
TAP	25	240	7
TAP	25	288	0
TAP	25	336	1
TAP	26	0	2
TAP	26	48	3
TAP	26	96	2
TAP	26	96	4
TAP	26	192	5
TAP	26	240	4
STR	26	288	3
SI_	26	288	3	96	144	7
STR	26	288	5
SI_	26	288	5	96	144	1
TAP	27	240	0
TAP	27	288	7
TAP	27	336	6
HLD	28	0	5	144
TAP	28	144	3
TAP	28	240	7
TAP	28	288	0
TAP	28	336	1
TAP	29	0	2
TAP	29	96	1
TAP	29	96	5
TAP	29	192	0
TAP	29	192	4
TAP	29	288	3
TAP	29	288	7
HLD	30	0	2	96
HLD	30	0	6	96
HLD	30	192	0	96
HLD	30	192	4	96
STR	31	0	0
SI_	31	0	0	96	96	5
STR	31	0	4
SI_	31	0	4	96	96	1
TAP	32	0	2
TAP	32	48	4
TAP	32	96	4
TAP	32	144	6
TAP	32	192	6
TAP	32	240	0
TAP	32	288	0
TAP	32	336	2
STR	33	0	2
SI_	33	0	2	96	48	6
TAP	33	240	6
TAP	33	288	6
TAP	33	336	7
TAP	34	0	7
TAP	34	48	1
TAP	34	96	1
TAP	34	144	3
TAP	34	192	3
TAP	34	240	5
TAP	34	288	5
TAP	34	336	7
STR	35	0	7
SI_	35	0	7	96	48	3
TAP	35	240	7
TAP	35	288	0
TAP	35	336	1
HLD	36	0	2	288
TAP	36	144	1
TAP	36	288	4
HLD	37	0	6	288
TAP	37	144	5
TAP	37	288	0
TAP	38	0	3
TAP	38	0	7
TAP	38	240	7
TAP	38	288	0
TAP	38	336	1
STR	39	0	2
SI_	39	0	2	96	48	6
STR	39	144	5
SI_	39	144	5	96	48	1
STR	39	336	0
SI_	39	336	0	96	240	4
STR	39	336	7
SI_	39	336	7	96	240	3
TAP	41	0	0
TAP	41	72	1
TAP	41	144	2
TAP	41	216	3
TAP	41	288	4
TAP	41	288	5
TAP	42	0	7
TAP	42	72	6
TAP	42	144	5
TAP	42	216	4
TAP	42	288	2
TAP	42	288	3
TAP	43	0	2
TAP	43	72	3
TAP	43	144	4
TAP	43	216	5
TAP	43	288	6
TAP	43	288	7
TAP	44	0	5
TAP	44	72	4
TAP	44	144	3
TAP	44	216	2
TAP	44	288	0
TAP	44	288	1
TAP	45	0	0
TAP	45	72	2
TAP	45	144	4
TAP	45	216	6
TAP	45	288	0
TAP	45	288	7
TAP	46	0	7
TAP	46	72	5
TAP	46	144	3
TAP	46	216	1
TAP	46	288	0
TAP	46	288	7
TAP	47	0	0
TAP	47	72	1
TAP	47	144	4
TAP	47	216	5
BRK	47	288	0
BRK	47	288	6
TAP	48	0	7
TAP	48	72	6
TAP	48	144	3
TAP	48	216	2
BRK	48	288	1
BRK	48	288	7
STR	49	0	1
SI_	49	0	1	96	192	5
TAP	49	288	6
STR	50	0	6
SI_	50	0	6	96	192	2
TAP	50	288	0
STR	51	0	0
SI_	51	0	0	96	192	4
TAP	51	288	7
STR	52	0	7
SI_	52	0	7	96	192	3
TAP	52	288	1
TAP	53	0	7
TAP	53	96	7
TAP	53	192	0
TAP	53	288	0
TAP	54	0	1
TAP	54	96	1
TAP	54	192	2
TAP	54	288	2
TAP	55	0	3
TAP	55	96	4
TAP	55	192	5
TAP	55	288	6
TAP	56	0	7
TAP	56	48	0
TAP	56	96	1
TAP	56	144	2
TAP	56	192	3
TAP	56	240	4
TAP	56	288	5
TAP	56	336	6
STR	57	0	3
SCL	57	0	3	96	96	0
STR	57	0	7
SCL	57	0	7	96	96	4
STR	58	0	1
SI_	58	0	1	96	48	5
TAP	58	96	0
STR	58	192	2
SI_	58	192	2	96	48	7
TAP	58	288	1
HLD	59	0	1	144
HLD	59	0	5	144
TAP	59	240	1
TAP	59	288	0
TAP	59	336	7
STR	60	0	6
SI_	60	0	6	96	48	2
TAP	60	96	7
STR	60	192	5
SI_	60	192	5	96	48	0
TAP	60	288	6
HLD	61	0	3	144
HLD	61	0	7	144
TAP	61	240	6
TAP	61	288	7
TAP	61	336	0
HLD	62	0	1	144
TAP	62	144	2
TAP	62	240	5
TAP	62	288	4
TAP	62	336	3
TAP	63	0	2
TAP	63	96	1
TAP	63	96	5
TAP	63	192	0
TAP	63	192	4
TAP	63	288	3
TAP	63	288	7
HLD	64	0	2	96
HLD	64	0	6	96
HLD	64	192	3	96
HLD	64	192	7	96
STR	65	0	3
SI_	65	0	3	96	96	6
STR	65	0	7
SI_	65	0	7	96	96	2
STR	66	0	1
SCR	66	0	1	96	48	4
TAP	66	96	7
STR	66	192	7
SCL	66	192	7	96	48	4
STR	66	288	0
SI_	66	288	0	96	96	4
TAP	67	0	0
TAP	67	240	5
TAP	67	288	2
TAP	67	336	1
STR	68	0	6
SCL	68	0	6	96	48	3
TAP	68	96	0
STR	68	192	0
SCR	68	192	0	96	48	3
STR	68	288	7
SI_	68	288	7	96	96	3
TAP	69	0	7
TAP	69	240	5
TAP	69	288	4
TAP	69	336	3
HLD	70	0	2	288
STR	70	144	1
SI_	70	144	1	96	48	4
HLD	71	0	6	288
STR	71	144	5
SI_	71	144	5	96	48	0
TAP	72	0	3
TAP	72	0	7
TAP	72	240	4
TAP	72	288	3
TAP	72	336	2
STR	73	0	1
SI_	73	0	1	96	48	5
STR	73	144	6
SI_	73	144	6	96	48	2
STR	73	336	3
SI_	73	336	3	96	528	7
STR	73	336	4
SI_	73	336	4	96	528	0
BRK	75	336	1
BRK	75	336	6

T_REC_TAP	236
T_REC_BRK	6
T_REC_XTP	0
T_REC_HLD	31
T_REC_XHO	0
T_REC_STR	44
T_REC_BST	0
T_REC_XST	0
T_REC_TTP	0
T_REC_THO	0
T_REC_SLD	44
T_REC_ALL	361
T_NUM_TAP	280
T_NUM_BRK	6
T_NUM_HLD	31
T_NUM_SLD	44
T_NUM_ALL	361
T_JUDGE_TAP	286
T_JUDGE_HLD	124
T_JUDGE_SLD	44
T_JUDGE_ALL	454
TTM_EACHPAIRS	61
TTM_SCR_TAP	140000
TTM_SCR_BRK	15600
TTM_SCR_HLD	31000
TTM_SCR_SLD	66000
TTM_SCR_ALL	252600
TTM_SCR_S	244450
TTM_SCR_SS	252000
TTM_RAT_ACV	10023

