VERSION	0.00.00	1.03.00
FES_MODE	0
BPM_DEF	143.000	143.000	143.000	143.000
MET_DEF	4	4
RESOLUTION	384
CLK_DEF	384
COMPATIBLE_CODE	MA2

BPM	0	0	143.000
MET	0	0	4	4

TAP	2	48	0
TAP	2	96	0
TAP	2	144	0
HLD	2	240	0	144
HLD	2	240	4	144
STR	3	96	0
SI_	3	96	0	96	192	3
STR	4	96	7
SI_	4	96	7	96	192	4
STR	5	96	1
SI_	5	96	1	96	288	5
TAP	7	0	2
TAP	7	336	2
TAP	8	0	2
TAP	9	0	5
TAP	9	336	5
TAP	10	0	5
HLD	10	96	4	96
HLD	10	192	3	96
HLD	10	288	2	96
HLD	11	0	1	192
HLD	12	0	0	192
HLD	13	0	7	192
HLD	14	0	6	192
HLD	15	0	0	288
TAP	15	192	1
TAP	15	288	1
HLD	16	0	2	288
TAP	16	192	3
TAP	16	288	3
HLD	17	0	4	288
TAP	17	192	5
TAP	17	288	5
HLD	18	0	6	288
TAP	18	192	7
TAP	18	288	7
HLD	19	0	1	144
HLD	19	144	6	144
TAP	20	0	0
TAP	20	48	0
TAP	20	96	7
TAP	20	144	7
HLD	21	0	0	240
HLD	21	144	7	96
HLD	21	336	1	336
HLD	21	336	6	336
STR	23	0	0
SI_	23	0	0	96	96	5
STR	23	0	1
SI_	23	0	1	96	96	4
HLD	24	0	6	96
HLD	24	96	7	96
HLD	24	192	0	96
HLD	24	288	1	288
HLD	25	0	5	192
HLD	26	0	5	96
HLD	26	96	4	96
HLD	26	192	3	96
HLD	26	288	2	288
HLD	27	0	6	192
TAP	27	240	7
TAP	27	288	6
TAP	27	336	5
HLD	28	0	4	144
TAP	28	240	0
TAP	28	288	1
TAP	28	336	2
HLD	29	0	3	96
HLD	29	96	4	96
HLD	29	192	5	96
HLD	29	288	6	96
HLD	30	0	7	192
TAP	30	192	0
STR	31	0	6
SI_	31	0	6	96	96	3
STR	31	0	7
SI_	31	0	7	96	96	2
HLD	32	0	1	96
HLD	32	96	0	96
HLD	32	192	7	96
HLD	32	288	6	288
HLD	33	0	2	192
HLD	34	0	2	96
HLD	34	96	3	96
HLD	34	192	4	96
HLD	34	288	5	288
HLD	35	0	1	192
HLD	36	0	6	288
TAP	36	144	1
TAP	36	288	1
HLD	37	0	1	288
TAP	37	144	6
TAP	37	288	6
HLD	38	0	1	288
HLD	38	0	6	288
HLD	39	0	0	288
HLD	39	144	7	144
STR	39	336	0
SI_	39	336	0	96	192	3
STR	39	336	7
SI_	39	336	7	96	192	4
STR	41	0	0
SI_	41	0	0	96	96	4
STR	42	0	4
SI_	42	0	4	96	96	1
STR	43	0	1
SI_	43	0	1	96	96	6
STR	44	0	6
SI_	44	0	6	96	96	3
STR	45	0	3
SI_	45	0	3	96	96	7
STR	46	0	7
SCR	46	0	7	96	96	2
STR	47	0	2
SCR	47	0	2	96	96	5
STR	48	0	5
SCR	48	0	5	96	96	0
TAP	49	0	2
TAP	49	192	2
TAP	50	0	2
TAP	50	192	2
TAP	51	0	5
TAP	51	192	5
TAP	52	0	5
TAP	52	192	5
TAP	53	0	1
TAP	53	96	1
TAP	53	192	1
TAP	53	288	1
TAP	54	0	6
TAP	54	96	6
TAP	54	192	6
TAP	54	288	6
HLD	55	0	0	288
HLD	55	144	7	144
STR	55	336	0
SI_	55	336	0	96	96	3
STR	55	336	7
SI_	55	336	7	96	96	4
STR	57	0	0
SI_	57	0	0	96	96	5
STR	57	0	1
SI_	57	0	1	96	96	4
HLD	58	0	6	96
HLD	58	96	7	96
HLD	58	192	0	96
HLD	58	288	1	288
HLD	59	0	5	192
HLD	60	0	5	96
HLD	60	96	4	96
HLD	60	192	3	96
HLD	60	288	2	288
HLD	61	0	6	192
TAP	61	240	7
TAP	61	288	6
TAP	61	336	5
HLD	62	0	4	144
TAP	62	240	0
TAP	62	288	1
TAP	62	336	2
HLD	63	0	3	96
HLD	63	96	4	96
HLD	63	192	5	96
HLD	63	288	6	96
HLD	64	0	7	192
TAP	64	192	0
STR	65	0	6
SI_	65	0	6	96	96	3
STR	65	0	7
SI_	65	0	7	96	96	2
HLD	66	0	1	96
HLD	66	96	0	96
HLD	66	192	7	96
HLD	66	288	6	288
HLD	67	0	2	192
HLD	68	0	2	96
HLD	68	96	3	96
HLD	68	192	4	96
HLD	68	288	5	288
HLD	69	0	1	192
HLD	70	0	6	288
TAP	70	144	1
TAP	70	288	1
HLD	71	0	1	288
TAP	71	144	6
TAP	71	288	6
HLD	72	0	1	288
HLD	72	0	6	288
HLD	73	0	0	240
HLD	73	144	7	96
STR	73	336	0
SI_	73	336	0	96	480	3
STR	73	336	7
SI_	73	336	7	96	480	4
BRK	75	336	1
BRK	75	336	6

T_REC_TAP	59
T_REC_BRK	2
T_REC_XTP	0
T_REC_HLD	85
T_REC_XHO	0
T_REC_STR	25
T_REC_BST	0
T_REC_XST	0
T_REC_TTP	0
T_REC_THO	0
T_REC_SLD	25
T_REC_ALL	196
T_NUM_TAP	84
T_NUM_BRK	2
T_NUM_HLD	85
T_NUM_SLD	25
T_NUM_ALL	196
T_JUDGE_TAP	86
T_JUDGE_HLD	310
T_JUDGE_SLD	25
T_JUDGE_ALL	421
TTM_EACHPAIRS	12
TTM_SCR_TAP	42000
TTM_SCR_BRK	5200
TTM_SCR_HLD	85000
TTM_SCR_SLD	37500
TTM_SCR_ALL	169700
TTM_SCR_S	164450
TTM_SCR_SS	169500
TTM_RAT_ACV	10011

