VERSION	0.00.00	1.03.00
FES_MODE	0
BPM_DEF	143.000	143.000	143.000	143.000
MET_DEF	4	4
RESOLUTION	384
CLK_DEF	384
COMPATIBLE_CODE	MA2

BPM	0	0	143.000
MET	0	0	4	4

STR	3	96	7
SI_	3	96	7	96	96	3
HLD	7	0	0	144
TAP	8	0	1
HLD	9	0	7	144
TAP	10	0	6
HLD	11	0	5	288
HLD	12	0	4	288
TAP	13	0	5
TAP	13	192	5
TAP	14	0	6
TAP	14	192	6
TAP	15	0	7
HLD	15	96	7	192
TAP	16	0	0
HLD	16	96	0	192
TAP	17	0	1
HLD	17	96	1	192
TAP	18	0	2
HLD	18	96	2	192
TAP	19	0	1
TAP	19	96	1
TAP	20	0	0
TAP	20	96	0
STR	21	0	7
SI_	21	0	7	96	96	4
BRK	23	0	0
TAP	24	0	7
TAP	24	96	7
TAP	24	192	6
TAP	24	288	6
HLD	25	0	5	192
TAP	26	0	6
TAP	26	96	6
TAP	26	192	7
TAP	26	288	7
HLD	27	0	0	192
TAP	28	0	7
TAP	28	96	7
TAP	29	0	5
TAP	29	96	5
TAP	30	0	3
TAP	30	96	3
STR	31	0	1
SI_	31	0	1	96	96	6
HLD	32	0	7	288
HLD	33	0	0	288
HLD	34	0	1	288
HLD	35	0	2	288
TAP	36	0	1
TAP	36	192	0
TAP	37	0	7
TAP	37	192	6
STR	38	0	5
SI_	38	0	5	96	96	0
BRK	40	0	0
BRK	40	0	7
TAP	41	0	0
TAP	41	192	0
TAP	42	0	1
TAP	42	192	1
TAP	43	0	2
TAP	43	192	2
TAP	44	0	3
TAP	44	192	3
TAP	45	0	4
TAP	45	192	4
TAP	46	0	5
TAP	46	192	5
TAP	47	0	6
TAP	47	192	6
TAP	48	0	7
TAP	48	192	7
HLD	49	0	0	672
HLD	51	0	7	672
TAP	53	0	1
TAP	53	192	1
TAP	54	0	3
TAP	54	192	3
TAP	55	0	5
TAP	55	192	5
HLD	56	0	7	288
BRK	57	0	7
TAP	58	0	0
TAP	58	96	0
TAP	58	192	1
TAP	58	288	1
HLD	59	0	2	192
TAP	60	0	1
TAP	60	96	1
TAP	60	192	0
TAP	60	288	0
HLD	61	0	7	192
TAP	62	0	0
TAP	62	96	0
TAP	63	0	2
TAP	63	96	2
TAP	64	0	4
TAP	64	96	4
STR	65	0	6
SI_	65	0	6	96	96	1
TAP	66	0	0
TAP	66	96	0
TAP	66	192	7
TAP	66	288	7
TAP	67	0	6
TAP	67	96	6
TAP	67	192	5
TAP	67	288	5
TAP	68	0	4
TAP	68	96	4
TAP	68	192	3
TAP	68	288	3
TAP	69	0	2
TAP	69	96	2
TAP	69	192	1
TAP	69	288	1
HLD	70	0	0	144
HLD	71	0	1	144
HLD	72	0	0	288
HLD	73	0	7	288
STR	74	0	7
SI_	74	0	7	96	96	4

T_REC_TAP	84
T_REC_BRK	4
T_REC_XTP	0
T_REC_HLD	23
T_REC_XHO	0
T_REC_STR	6
T_REC_BST	0
T_REC_XST	0
T_REC_TTP	0
T_REC_THO	0
T_REC_SLD	6
T_REC_ALL	123
T_NUM_TAP	90
T_NUM_BRK	4
T_NUM_HLD	23
T_NUM_SLD	6
T_NUM_ALL	123
T_JUDGE_TAP	94
T_JUDGE_HLD	126
T_JUDGE_SLD	6
T_JUDGE_ALL	226
TTM_EACHPAIRS	1
TTM_SCR_TAP	45000
TTM_SCR_BRK	10400
TTM_SCR_HLD	23000
TTM_SCR_SLD	9000
TTM_SCR_ALL	87400
TTM_SCR_S	84400
TTM_SCR_SS	87000
TTM_RAT_ACV	10045

