VERSION	0.00.00	1.03.00
FES_MODE	0
BPM_DEF	145.000	145.000	145.000	145.000
MET_DEF	4	4
RESOLUTION	384
CLK_DEF	384
COMPATIBLE_CODE	MA2

BPM	0	0	145.000
MET	0	0	4	4

HLD	1	0	5	192
HLD	1	192	1	192
STR	2	0	7
SI_	2	0	7	96	192	3
HLD	2	96	7	192
STR	3	0	0
SI_	3	0	0	96	48	5
HLD	3	0	1	96
HLD	3	192	2	96
STR	3	192	3
SI_	3	192	3	96	48	6
TAP	4	0	6
TAP	4	72	0
TAP	4	144	2
TAP	4	192	0
TAP	4	192	4
BRK	4	288	2
BRK	4	288	6
HLD	5	0	1	72
HLD	5	72	0	72
HLD	5	144	7	96
HLD	5	240	6	120
TAP	5	288	7
TAP	5	312	7
HLD	5	360	2	96
HLD	6	72	3	72
HLD	6	144	4	96
HLD	6	240	5	120
TAP	6	288	1
TAP	6	312	1
HLD	6	360	1	96
HLD	7	72	3	72
HLD	7	144	5	96
HLD	7	240	3	120
TAP	7	288	1
TAP	7	312	1
HLD	7	360	1	96
HLD	8	72	7	72
HLD	8	144	5	96
TAP	8	240	6
TAP	8	264	7
TAP	8	288	0
TAP	8	312	1
TAP	8	336	2
HLD	9	0	0	72
HLD	9	72	3	72
HLD	9	144	5	96
STR	9	240	0
SI_	9	240	0	96	24	5
TAP	9	288	0
STR	9	360	2
SI_	9	360	2	96	24	7
TAP	10	72	0
STR	10	144	0
SCR	10	144	0	96	24	3
TAP	10	288	0
TAP	10	312	7
TAP	10	336	6
TAP	10	360	5
TAP	11	0	3
TAP	11	96	4
TAP	11	192	3
TAP	11	216	4
TAP	11	264	1
TAP	11	312	0
TAP	11	360	7
TAP	12	0	0
TAP	12	48	2
TAP	12	96	4
TAP	12	144	6
TAP	12	192	4
TAP	12	240	0
BRK	12	264	7
TAP	13	0	2
TAP	13	24	6
TAP	13	72	0
TAP	13	120	0
TAP	13	168	0
TAP	13	192	4
TAP	13	240	2
TAP	13	288	2
TAP	13	336	2
TAP	14	0	2
TAP	14	24	6
TAP	14	72	4
TAP	14	120	4
TAP	14	168	4
TAP	14	216	4
TAP	14	264	4
TAP	14	288	0
TAP	14	336	6
TAP	15	0	5
TAP	15	24	1
TAP	15	72	7
TAP	15	120	7
TAP	15	168	7
TAP	15	216	7
TAP	15	264	7
TAP	15	288	3
TAP	15	336	1
TAP	16	0	1
TAP	16	24	5
TAP	16	72	3
TAP	16	120	3
TAP	16	168	3
TAP	16	192	7
TAP	16	240	5
TAP	16	288	5
BRK	16	336	5
TAP	17	0	1
TAP	17	0	3
TAP	17	24	0
TAP	17	72	0
TAP	17	120	7
TAP	17	168	7
TAP	17	192	1
TAP	17	192	6
TAP	17	240	5
TAP	17	288	5
TAP	17	336	5
TAP	18	0	2
TAP	18	0	4
TAP	18	24	3
TAP	18	72	3
TAP	18	120	3
TAP	18	168	2
TAP	18	216	2
TAP	18	264	2
TAP	18	288	0
TAP	18	288	1
TAP	18	336	7
TAP	19	0	6
TAP	19	0	7
TAP	19	24	0
TAP	19	72	1
TAP	19	120	3
TAP	19	168	5
TAP	19	216	7
TAP	19	264	2
TAP	19	288	0
TAP	19	288	1
TAP	19	336	1
TAP	20	0	4
TAP	20	0	5
TAP	20	24	6
TAP	20	72	3
TAP	20	120	1
TAP	20	168	7
TAP	20	192	0
TAP	20	240	2
TAP	20	288	4
BRK	20	336	6
TAP	21	0	0
TAP	21	0	1
TAP	21	96	6
TAP	21	96	7
TAP	21	144	2
STR	21	144	3
SI_	21	144	3	96	48	7
STR	21	240	0
SI_	21	240	0	96	24	4
TAP	21	240	3
TAP	21	288	0
TAP	22	0	2
TAP	22	0	3
TAP	22	96	4
TAP	22	96	5
TAP	22	192	6
TAP	22	192	7
TAP	22	288	0
TAP	22	288	1
TAP	23	0	5
TAP	23	0	7
TAP	23	96	1
TAP	23	96	3
STR	23	144	0
SCR	23	144	0	96	48	3
TAP	23	144	4
STR	23	240	0
SCL	23	240	0	96	48	5
TAP	23	240	4
TAP	23	288	0
TAP	23	336	4
TAP	24	0	4
TAP	24	96	6
TAP	24	192	1
TAP	24	192	7
TAP	24	240	0
TAP	24	288	3
TAP	24	288	5
TAP	24	336	4
TAP	25	0	0
HLD	25	0	2	96
TAP	25	96	6
HLD	25	144	4	96
TAP	25	144	6
TAP	25	240	5
TAP	25	288	6
TAP	25	336	7
STR	26	0	0
SI_	26	0	0	96	48	4
TAP	26	96	0
STR	26	96	6
SI_	26	96	6	96	48	2
STR	26	192	4
SI_	26	192	4	96	48	0
TAP	26	192	6
TAP	26	288	4
TAP	26	288	7
HLD	27	0	1	96
TAP	27	0	6
TAP	27	96	6
TAP	27	144	3
HLD	27	144	7	192
TAP	27	240	1
TAP	27	288	2
TAP	27	336	3
TAP	28	0	0
STR	28	0	4
SI_	28	0	4	96	48	0
TAP	28	96	4
STR	28	96	7
SI_	28	96	7	96	48	3
STR	28	192	1
SI_	28	192	1	96	48	5
TAP	28	192	7
BRK	28	288	0
BRK	28	288	1
TAP	29	0	1
TAP	29	24	0
TAP	29	72	4
TAP	29	96	5
TAP	29	144	2
TAP	29	168	3
TAP	29	216	7
TAP	29	240	6
TAP	29	288	0
TAP	29	288	6
TAP	29	336	4
TAP	29	336	6
TAP	30	0	0
TAP	30	24	1
TAP	30	72	6
TAP	30	96	7
TAP	30	144	1
TAP	30	168	7
TAP	30	216	6
TAP	30	240	0
TAP	30	288	1
TAP	30	288	6
TAP	30	336	0
TAP	30	336	7
TAP	31	0	0
TAP	31	24	6
TAP	31	72	4
TAP	31	96	6
TAP	31	144	2
TAP	31	168	4
TAP	31	216	0
TAP	31	240	2
TAP	31	288	2
TAP	31	288	6
TAP	31	336	0
TAP	31	336	4
TAP	32	0	0
TAP	32	0	2
TAP	32	72	2
HLD	32	72	4	72
HLD	32	144	6	96
TAP	32	240	0
BRK	32	288	0
TAP	33	0	2
TAP	33	24	3
TAP	33	48	1
TAP	33	72	3
TAP	33	96	2
TAP	33	144	5
TAP	33	168	4
TAP	33	192	6
TAP	33	216	4
TAP	33	240	5
TAP	33	288	0
TAP	33	312	1
TAP	33	336	2
TAP	33	360	3
TAP	34	0	5
TAP	34	24	4
TAP	34	48	5
TAP	34	72	4
TAP	34	96	5
TAP	34	144	2
TAP	34	168	3
TAP	34	192	2
TAP	34	216	3
TAP	34	240	2
TAP	34	288	5
TAP	34	312	3
TAP	34	336	4
TAP	34	360	2
TAP	35	0	6
TAP	35	24	7
TAP	35	48	5
TAP	35	72	7
TAP	35	96	6
TAP	35	120	7
TAP	35	144	5
TAP	35	168	7
TAP	35	192	3
TAP	35	216	2
TAP	35	240	4
TAP	35	264	2
TAP	35	288	3
TAP	35	312	2
TAP	35	336	4
TAP	35	360	2
STR	36	0	3
SI_	36	0	3	96	192	7
HLD	36	96	3	192
TAP	37	0	1
TAP	37	24	0
TAP	37	48	2
TAP	37	96	6
TAP	37	96	7
TAP	37	144	4
TAP	37	168	5
TAP	37	216	2
TAP	37	240	3
TAP	37	288	0
TAP	37	312	5
TAP	37	336	0
TAP	38	0	6
TAP	38	24	7
TAP	38	48	5
TAP	38	96	0
TAP	38	96	1
TAP	38	144	3
TAP	38	168	2
TAP	38	216	5
TAP	38	240	4
TAP	38	288	7
TAP	38	312	2
TAP	38	336	7
TAP	39	0	2
TAP	39	24	3
TAP	39	48	2
TAP	39	96	4
TAP	39	96	5
TAP	39	144	5
TAP	39	168	4
TAP	39	216	6
TAP	39	240	7
TAP	39	288	1
TAP	39	312	0
TAP	39	336	2
TAP	40	0	5
TAP	40	24	4
TAP	40	48	5
TAP	40	96	2
TAP	40	96	3
TAP	40	144	2
TAP	40	168	3
TAP	40	216	1
TAP	40	240	0
TAP	40	288	6
TAP	40	312	7
TAP	40	336	5
BRK	40	360	0
STR	41	0	6
SCL	41	0	6	96	48	3
TAP	41	24	7
TAP	41	48	6
TAP	41	96	1
TAP	41	144	1
TAP	41	168	3
TAP	41	216	4
TAP	41	240	6
TAP	41	288	0
TAP	41	312	6
TAP	41	336	1
STR	42	0	1
SCR	42	0	1	96	48	4
TAP	42	24	0
TAP	42	48	1
TAP	42	96	6
TAP	42	144	6
TAP	42	168	4
TAP	42	216	3
TAP	42	240	1
TAP	42	288	7
TAP	42	312	1
TAP	42	336	6
STR	43	0	0
SI_	43	0	0	96	48	4
TAP	43	24	7
TAP	43	48	0
TAP	43	96	6
TAP	43	144	6
TAP	43	168	2
TAP	43	216	4
TAP	43	240	0
TAP	43	288	0
TAP	43	312	5
TAP	43	336	4
STR	44	0	7
SI_	44	0	7	96	48	3
TAP	44	24	0
TAP	44	48	7
TAP	44	96	1
TAP	44	144	1
TAP	44	168	5
TAP	44	216	3
TAP	44	240	7
TAP	44	288	2
TAP	44	312	3
TAP	44	336	2
TAP	45	0	6
TAP	45	24	7
TAP	45	72	2
TAP	45	96	3
TAP	45	144	5
TAP	45	168	4
TAP	45	216	1
TAP	45	240	0
TAP	45	288	4
TAP	45	312	3
TAP	45	336	4
TAP	46	0	1
TAP	46	24	0
TAP	46	72	0
TAP	46	96	7
TAP	46	144	7
TAP	46	168	6
TAP	46	216	0
TAP	46	240	7
TAP	46	288	3
TAP	46	312	4
TAP	46	336	2
TAP	47	0	6
TAP	47	24	7
TAP	47	72	7
TAP	47	96	0
TAP	47	144	0
TAP	47	168	1
TAP	47	216	7
TAP	47	240	0
TAP	47	288	4
TAP	47	312	3
TAP	47	336	5
TAP	48	0	1
TAP	48	24	0
TAP	48	72	5
TAP	48	96	4
TAP	48	144	2
TAP	48	168	3
TAP	48	216	6
TAP	48	240	7
BRK	48	288	3
TAP	48	312	4
TAP	48	336	3
TAP	49	0	1
TAP	49	24	0
TAP	49	72	2
TAP	49	96	3
TAP	49	144	7
TAP	49	168	6
TAP	49	216	4
TAP	49	240	5
TAP	49	288	1
TAP	49	312	0
TAP	49	336	1
TAP	50	0	6
TAP	50	24	7
TAP	50	72	5
TAP	50	96	4
TAP	50	144	0
TAP	50	168	1
TAP	50	216	3
TAP	50	240	2
TAP	50	288	6
TAP	50	312	7
TAP	50	336	6
STR	51	0	0
SI_	51	0	0	96	48	3
STR	51	96	7
SI_	51	96	7	96	48	4
STR	51	192	1
SCL	51	192	1	96	48	6
TAP	52	0	2
TAP	52	24	4
TAP	52	72	4
TAP	52	96	6
TAP	52	144	6
TAP	52	168	0
TAP	52	216	0
TAP	52	240	2
BRK	52	288	0
TAP	52	312	7
TAP	52	336	1
STR	53	0	3
SCL	53	0	3	96	96	0
STR	53	96	0
SI_	53	96	0	96	96	4
STR	53	192	4
SCR	53	192	4	96	96	7
STR	54	0	0
SCR	54	0	0	96	96	3
STR	54	96	3
SI_	54	96	3	96	96	7
STR	54	192	7
SCL	54	192	7	96	96	4
STR	55	0	6
SI_	55	0	6	96	96	1
STR	55	96	1
SI_	55	96	1	96	96	4
STR	55	192	4
SI_	55	192	4	96	96	7
STR	55	288	7
SI_	55	288	7	96	96	2
STR	56	0	2
SI_	56	0	2	96	96	5
STR	56	96	5
SI_	56	96	5	96	96	0
STR	56	192	0
SCR	56	192	0	96	48	3
STR	56	240	0
SCL	56	240	0	96	48	5
STR	57	0	0
SCR	57	0	0	96	96	3
TAP	57	48	0
STR	57	96	3
SCR	57	96	3	96	96	6
TAP	57	144	3
STR	57	192	6
SCR	57	192	6	96	48	1
TAP	57	240	6
STR	58	0	7
SCL	58	0	7	96	96	4
TAP	58	48	7
STR	58	96	4
SCL	58	96	4	96	96	1
TAP	58	144	4
STR	58	192	1
SCL	58	192	1	96	48	6
TAP	58	240	1
STR	59	0	1
SCL	59	0	1	96	96	6
STR	59	96	6
SI_	59	96	6	96	96	2
STR	59	192	2
SCR	59	192	2	96	96	5
STR	60	0	7
SI_	60	0	7	96	48	4
STR	60	96	0
SI_	60	96	0	96	48	3
STR	60	192	5
SI_	60	192	5	96	48	2
TAP	61	0	3
TAP	61	24	3
TAP	61	72	5
TAP	61	96	5
TAP	61	144	7
TAP	61	168	7
TAP	61	216	1
TAP	61	240	1
BRK	61	288	3
TAP	61	288	7
TAP	61	336	1
TAP	61	336	5
TAP	62	0	2
TAP	62	24	0
TAP	62	72	4
TAP	62	96	6
TAP	62	144	6
TAP	62	168	0
TAP	62	216	0
TAP	62	240	2
TAP	62	288	3
BRK	62	288	7
TAP	62	336	1
TAP	62	336	5
TAP	63	0	5
TAP	63	24	4
TAP	63	24	6
TAP	63	72	2
TAP	63	96	1
TAP	63	96	3
TAP	63	144	6
TAP	63	168	5
TAP	63	168	7
TAP	63	216	1
TAP	63	240	0
TAP	63	240	2
BRK	63	288	3
TAP	63	288	7
TAP	63	336	1
TAP	63	336	5
TAP	64	0	0
TAP	64	0	4
TAP	64	72	1
TAP	64	72	5
TAP	64	144	2
TAP	64	144	6
TAP	64	240	3
TAP	64	240	7
BRK	64	288	0
BRK	64	288	4
TAP	65	0	1
TAP	65	24	2
TAP	65	48	3
TAP	65	72	4
TAP	65	96	5
TAP	65	144	0
TAP	65	168	7
TAP	65	192	6
TAP	65	216	5
TAP	65	240	4
TAP	65	288	6
TAP	65	312	7
TAP	65	336	0
TAP	65	360	1
TAP	66	0	6
TAP	66	24	5
TAP	66	48	4
TAP	66	72	3
TAP	66	96	2
TAP	66	144	7
TAP	66	168	0
TAP	66	192	1
TAP	66	216	2
TAP	66	240	3
TAP	66	288	1
TAP	66	312	0
TAP	66	336	7
TAP	66	360	6
TAP	67	0	4
TAP	67	24	5
TAP	67	48	6
TAP	67	72	7
TAP	67	96	0
TAP	67	120	1
TAP	67	144	2
TAP	67	168	3
TAP	67	192	4
TAP	67	216	5
TAP	67	240	6
TAP	67	264	7
TAP	67	288	0
TAP	67	312	1
TAP	67	336	2
TAP	67	360	3
STR	68	0	4
SI_	68	0	4	96	192	0
HLD	68	96	4	192
TAP	69	0	2
TAP	69	24	4
TAP	69	48	3
TAP	69	96	1
TAP	69	96	5
STR	69	144	3
SI_	69	144	3	96	48	7
TAP	69	168	3
TAP	69	216	7
TAP	69	288	0
TAP	69	312	6
TAP	69	336	0
TAP	70	0	5
TAP	70	24	3
TAP	70	48	4
TAP	70	96	2
TAP	70	96	6
STR	70	144	4
SI_	70	144	4	96	48	0
TAP	70	168	4
TAP	70	216	0
TAP	70	288	7
TAP	70	312	1
TAP	70	336	7
STR	71	0	0
SCL	71	0	0	96	48	5
TAP	71	24	1
TAP	71	48	2
TAP	71	96	3
STR	71	144	4
SI_	71	144	4	96	48	0
TAP	71	168	4
TAP	71	216	0
TAP	71	288	7
TAP	71	312	6
TAP	71	336	5
STR	72	0	7
SCR	72	0	7	96	48	2
TAP	72	24	6
TAP	72	48	5
TAP	72	96	4
STR	72	144	3
SI_	72	144	3	96	48	7
TAP	72	168	3
TAP	72	216	7
TAP	72	288	0
TAP	72	312	1
TAP	72	336	2
TAP	72	360	3
TAP	73	0	6
TAP	73	24	3
TAP	73	48	4
TAP	73	96	3
TAP	73	96	7
STR	73	144	0
SI_	73	144	0	96	48	4
TAP	73	144	4
TAP	73	168	0
TAP	73	216	4
TAP	73	288	5
TAP	73	312	3
TAP	73	336	5
TAP	74	0	1
TAP	74	24	4
TAP	74	48	3
TAP	74	96	0
TAP	74	96	4
TAP	74	144	3
STR	74	144	7
SI_	74	144	7	96	48	3
TAP	74	168	7
TAP	74	216	3
TAP	74	288	2
TAP	74	312	4
TAP	74	336	2
STR	75	0	6
SCR	75	0	6	96	48	1
TAP	75	24	5
TAP	75	48	6
TAP	75	96	5
TAP	75	144	2
TAP	75	168	3
TAP	75	216	5
TAP	75	240	4
TAP	75	288	0
TAP	75	288	4
TAP	75	336	1
TAP	75	336	5
TAP	76	0	2
TAP	76	0	6
TAP	76	48	3
TAP	76	48	7
TAP	76	96	0
TAP	76	96	2
TAP	76	120	1
TAP	76	120	7
TAP	76	168	2
TAP	76	168	3
TAP	76	216	4
TAP	76	216	5
TAP	76	264	1
TAP	76	264	5
TAP	76	288	2
TAP	76	288	6
TAP	76	312	3
TAP	76	312	7
TAP	76	336	0
TAP	76	336	4
BRK	76	360	1
BRK	76	360	5

T_REC_TAP	594
T_REC_BRK	18
T_REC_XTP	0
T_REC_HLD	31
T_REC_XHO	0
T_REC_STR	60
T_REC_BST	0
T_REC_XST	0
T_REC_TTP	0
T_REC_THO	0
T_REC_SLD	60
T_REC_ALL	763
T_NUM_TAP	654
T_NUM_BRK	18
T_NUM_HLD	31
T_NUM_SLD	60
T_NUM_ALL	763
T_JUDGE_TAP	672
T_JUDGE_HLD	77
T_JUDGE_SLD	60
T_JUDGE_ALL	809
TTM_EACHPAIRS	82
TTM_SCR_TAP	327000
TTM_SCR_BRK	46800
TTM_SCR_HLD	31000
TTM_SCR_SLD	90000
TTM_SCR_ALL	494800
TTM_SCR_S	478250
TTM_SCR_SS	493000
TTM_RAT_ACV	10036

