VERSION	0.00.00	1.03.00
FES_MODE	0
BPM_DEF	145.000	145.000	145.000	145.000
MET_DEF	4	4
RESOLUTION	384
CLK_DEF	384
COMPATIBLE_CODE	MA2

BPM	0	0	145.000
MET	0	0	4	4

HLD	1	0	5	192
HLD	1	192	1	192
STR	2	0	7
SI_	2	0	7	96	96	3
HLD	3	0	6	192
HLD	3	192	2	192
STR	4	0	4
SI_	4	0	4	96	96	0
BRK	4	288	0
BRK	4	288	7
TAP	5	0	1
TAP	5	0	2
TAP	5	96	0
TAP	5	96	2
TAP	5	192	2
TAP	5	192	7
TAP	5	288	2
TAP	5	288	6
TAP	6	0	2
TAP	6	0	5
TAP	6	96	5
TAP	6	96	6
TAP	6	192	5
TAP	6	192	7
TAP	6	288	0
TAP	6	288	5
TAP	7	0	1
TAP	7	0	5
TAP	7	96	1
TAP	7	96	4
TAP	7	192	1
TAP	7	192	3
TAP	7	288	1
TAP	7	288	2
TAP	8	0	0
TAP	8	0	2
TAP	8	96	2
TAP	8	96	7
TAP	8	192	2
TAP	8	192	6
TAP	8	288	3
TAP	8	288	6
TAP	8	336	5
TAP	9	0	4
TAP	9	0	6
TAP	9	96	5
TAP	9	96	6
TAP	9	192	5
TAP	9	192	7
TAP	9	288	0
TAP	9	288	5
TAP	10	0	1
TAP	10	0	5
TAP	10	96	2
TAP	10	96	6
TAP	10	192	3
TAP	10	192	7
TAP	10	288	0
TAP	10	288	4
TAP	11	0	2
TAP	11	0	6
TAP	11	192	0
TAP	11	192	4
TAP	12	0	3
TAP	12	0	7
STR	12	96	2
SCL	12	96	2	96	96	7
STR	12	96	6
SCL	12	96	6	96	96	3
HLD	13	0	0	192
TAP	13	96	2
HLD	13	192	7	192
TAP	13	288	5
HLD	14	0	0	192
TAP	14	96	4
HLD	14	192	3	288
TAP	14	288	7
TAP	15	0	6
TAP	15	96	5
HLD	15	192	4	384
TAP	15	288	3
TAP	16	0	2
TAP	16	96	1
TAP	16	192	0
BRK	16	288	1
BRK	16	288	6
TAP	17	0	3
STR	17	0	7
SCL	17	0	7	96	192	4
TAP	17	96	2
TAP	17	192	1
TAP	17	288	0
STR	18	0	0
SCR	18	0	0	96	192	3
TAP	18	0	7
TAP	18	96	6
TAP	18	192	5
TAP	18	288	4
TAP	19	0	0
STR	19	0	3
SI_	19	0	3	96	192	7
TAP	19	96	1
TAP	19	192	2
TAP	19	288	3
STR	20	0	4
SI_	20	0	4	96	192	0
TAP	20	0	7
TAP	20	96	6
TAP	20	192	5
TAP	20	288	4
TAP	21	0	0
TAP	21	0	7
TAP	21	96	2
TAP	21	144	3
TAP	21	240	5
TAP	21	288	4
TAP	22	0	0
TAP	22	0	1
TAP	22	96	0
TAP	22	96	2
TAP	22	192	6
TAP	22	192	7
TAP	22	288	5
TAP	22	288	7
TAP	23	0	3
TAP	23	0	4
TAP	23	96	1
TAP	23	144	0
TAP	23	240	6
TAP	23	288	7
TAP	24	0	4
TAP	24	0	5
TAP	24	96	4
TAP	24	96	6
TAP	24	192	2
TAP	24	192	3
TAP	24	288	1
TAP	24	288	3
TAP	25	0	3
TAP	25	0	7
TAP	25	96	5
TAP	25	144	4
TAP	25	240	0
TAP	25	288	1
STR	26	0	7
SI_	26	0	7	96	48	3
STR	26	96	1
SI_	26	96	1	96	48	5
STR	26	192	6
SI_	26	192	6	96	48	2
TAP	27	0	0
TAP	27	0	4
TAP	27	96	2
TAP	27	144	3
TAP	27	240	7
TAP	27	288	6
STR	28	0	0
SI_	28	0	0	96	48	4
STR	28	96	6
SI_	28	96	6	96	48	2
STR	28	192	1
SI_	28	192	1	96	48	4
TAP	29	0	7
HLD	29	48	7	96
TAP	29	96	5
TAP	29	144	5
TAP	29	192	3
HLD	29	240	3	96
TAP	29	288	1
TAP	29	336	1
TAP	30	0	0
HLD	30	48	0	96
TAP	30	96	2
TAP	30	144	2
TAP	30	192	4
HLD	30	240	4	96
TAP	30	288	6
TAP	30	336	6
TAP	31	0	7
TAP	31	48	6
TAP	31	96	5
TAP	31	144	4
TAP	31	192	3
TAP	31	240	2
TAP	31	288	1
TAP	31	336	0
HLD	32	0	7	144
TAP	32	72	1
HLD	32	144	0	96
TAP	32	240	6
BRK	32	288	0
BRK	32	288	7
TAP	33	0	0
TAP	33	48	1
TAP	33	96	2
TAP	33	144	3
TAP	33	192	4
TAP	33	240	5
TAP	33	288	6
TAP	33	288	7
TAP	33	336	0
TAP	33	336	1
TAP	34	0	7
TAP	34	48	6
TAP	34	96	5
TAP	34	144	4
TAP	34	192	3
TAP	34	240	2
TAP	34	288	0
TAP	34	288	1
TAP	34	336	6
TAP	34	336	7
STR	35	0	0
SI_	35	0	0	96	48	3
STR	35	96	4
SI_	35	96	4	96	48	7
STR	35	192	2
SI_	35	192	2	96	48	5
STR	35	288	6
SCR	35	288	6	96	144	1
BRK	36	288	1
TAP	37	0	1
TAP	37	72	3
TAP	37	144	2
TAP	37	192	7
TAP	37	264	5
TAP	37	336	6
TAP	38	0	5
TAP	38	72	3
TAP	38	144	4
TAP	38	192	2
TAP	38	192	3
TAP	38	288	4
TAP	38	288	5
TAP	39	0	5
TAP	39	72	7
TAP	39	144	6
TAP	39	192	7
TAP	39	264	1
TAP	39	336	0
TAP	40	0	1
TAP	40	72	2
TAP	40	144	0
STR	40	192	6
SI_	40	192	6	96	48	2
TAP	41	0	4
TAP	41	72	3
TAP	41	144	5
TAP	41	192	6
TAP	41	192	7
TAP	41	264	1
TAP	41	336	0
TAP	42	0	1
TAP	42	0	2
TAP	42	72	7
TAP	42	144	0
TAP	42	192	2
TAP	42	192	3
TAP	42	264	5
TAP	42	336	4
TAP	43	0	1
TAP	43	0	7
TAP	43	72	3
TAP	43	144	2
TAP	43	192	4
TAP	43	192	7
TAP	43	264	1
TAP	43	336	0
TAP	44	0	3
TAP	44	0	6
TAP	44	72	4
TAP	44	144	5
STR	44	192	3
SI_	44	192	3	96	48	0
STR	44	192	4
SI_	44	192	4	96	48	7
STR	45	0	0
SI_	45	0	0	96	48	4
STR	45	96	7
SI_	45	96	7	96	48	3
STR	45	192	1
SI_	45	192	1	96	48	5
STR	46	0	6
SI_	46	0	6	96	48	2
STR	46	96	0
SI_	46	96	0	96	48	4
STR	46	192	7
SI_	46	192	7	96	48	3
STR	47	0	2
SI_	47	0	2	96	48	7
STR	47	96	3
SI_	47	96	3	96	48	6
STR	47	192	0
SI_	47	192	0	96	48	4
TAP	48	0	1
TAP	48	96	0
TAP	48	96	4
TAP	48	192	3
TAP	48	192	7
BRK	48	288	2
BRK	48	288	6
STR	49	0	0
SI_	49	0	0	96	48	4
STR	49	96	4
SI_	49	96	4	96	48	0
STR	49	192	7
SI_	49	192	7	96	48	3
STR	50	0	1
SI_	50	0	1	96	48	5
STR	50	96	5
SI_	50	96	5	96	48	1
STR	50	192	6
SI_	50	192	6	96	48	2
STR	51	0	1
SI_	51	0	1	96	48	5
STR	51	96	3
SI_	51	96	3	96	48	7
STR	51	192	4
SI_	51	192	4	96	48	0
STR	52	0	2
SI_	52	0	2	96	96	7
TAP	52	96	6
TAP	52	192	5
BRK	52	288	4
HLD	53	0	5	192
TAP	53	96	4
TAP	53	192	1
TAP	53	288	6
TAP	53	288	7
HLD	54	0	2	192
TAP	54	96	3
TAP	54	192	6
TAP	54	288	0
TAP	54	288	1
TAP	55	0	1
TAP	55	0	7
TAP	55	96	0
TAP	55	192	3
TAP	55	192	5
TAP	55	288	4
TAP	56	0	0
TAP	56	0	6
TAP	56	96	7
TAP	56	192	2
TAP	56	192	4
TAP	56	288	3
HLD	57	0	1	96
HLD	57	96	3	192
STR	57	192	5
SCR	57	192	5	96	48	0
HLD	58	0	6	96
HLD	58	96	4	192
STR	58	192	2
SCL	58	192	2	96	48	7
HLD	59	0	0	96
HLD	59	96	7	96
HLD	59	192	6	96
TAP	59	288	5
STR	60	0	0
SI_	60	0	0	96	192	4
HLD	60	96	0	192
TAP	61	0	1
HLD	61	48	1	96
TAP	61	96	7
HLD	61	144	7	96
TAP	61	192	0
HLD	61	240	0	96
TAP	61	288	6
TAP	61	336	6
TAP	62	0	2
HLD	62	48	2	96
TAP	62	96	4
HLD	62	144	4	96
TAP	62	192	3
HLD	62	240	3	96
TAP	62	288	5
TAP	62	336	5
TAP	63	0	1
HLD	63	48	1	96
TAP	63	96	5
HLD	63	144	5	96
TAP	63	192	4
HLD	63	240	4	96
TAP	63	288	0
TAP	63	336	0
TAP	64	0	1
TAP	64	0	6
TAP	64	72	0
TAP	64	72	7
TAP	64	144	0
TAP	64	144	1
TAP	64	240	2
TAP	64	240	7
BRK	64	288	3
BRK	64	288	6
TAP	65	0	6
HLD	65	48	6	96
TAP	65	96	7
HLD	65	144	7	96
TAP	65	192	0
HLD	65	240	0	96
TAP	65	288	1
TAP	65	336	1
TAP	66	0	5
HLD	66	48	5	96
TAP	66	96	4
HLD	66	144	4	96
TAP	66	192	3
HLD	66	240	3	96
TAP	66	288	2
TAP	66	336	2
TAP	67	0	4
TAP	67	48	5
TAP	67	96	6
TAP	67	144	7
TAP	67	192	0
TAP	67	240	1
TAP	67	288	2
TAP	67	336	3
STR	68	0	4
SI_	68	0	4	96	144	0
TAP	68	240	7
TAP	68	288	7
TAP	68	336	5
HLD	69	0	3	96
HLD	69	96	2	192
TAP	69	168	1
TAP	69	240	1
HLD	69	288	1	96
TAP	69	336	0
HLD	70	0	0	96
TAP	70	48	7
HLD	70	96	7	72
TAP	70	168	6
TAP	70	240	0
TAP	70	240	4
TAP	70	288	2
TAP	70	288	6
TAP	70	336	1
TAP	70	336	5
TAP	71	0	3
HLD	71	0	7	96
HLD	71	96	1	72
TAP	71	168	2
STR	71	240	3
SI_	71	240	3	96	48	7
STR	71	288	4
SI_	71	288	4	96	24	0
TAP	72	240	0
TAP	72	288	0
TAP	72	336	2
HLD	73	0	4	96
HLD	73	96	5	192
TAP	73	168	6
TAP	73	240	6
HLD	73	288	6	96
TAP	73	336	7
HLD	74	0	7	96
TAP	74	48	0
HLD	74	96	0	72
TAP	74	168	1
TAP	74	240	2
TAP	74	288	0
TAP	74	336	5
STR	75	0	7
SCL	75	0	7	96	48	4
STR	75	96	2
SCL	75	96	2	96	48	7
STR	75	192	3
SI_	75	192	3	96	48	7
TAP	76	0	0
TAP	76	48	1
TAP	76	96	5
TAP	76	120	4
TAP	76	168	2
TAP	76	216	3
TAP	76	264	2
TAP	76	288	7
TAP	76	336	0
BRK	77	0	1
BRK	77	0	6

T_REC_TAP	317
T_REC_BRK	14
T_REC_XTP	0
T_REC_HLD	52
T_REC_XHO	0
T_REC_STR	49
T_REC_BST	0
T_REC_XST	0
T_REC_TTP	0
T_REC_THO	0
T_REC_SLD	49
T_REC_ALL	481
T_NUM_TAP	366
T_NUM_BRK	14
T_NUM_HLD	52
T_NUM_SLD	49
T_NUM_ALL	481
T_JUDGE_TAP	380
T_JUDGE_HLD	143
T_JUDGE_SLD	49
T_JUDGE_ALL	572
TTM_EACHPAIRS	79
TTM_SCR_TAP	183000
TTM_SCR_BRK	36400
TTM_SCR_HLD	52000
TTM_SCR_SLD	73500
TTM_SCR_ALL	344900
TTM_SCR_S	333200
TTM_SCR_SS	343500
TTM_RAT_ACV	10040

