VERSION	0.00.00	1.03.00
FES_MODE	0
BPM_DEF	145.000	145.000	145.000	145.000
MET_DEF	4	4
RESOLUTION	384
CLK_DEF	384
COMPATIBLE_CODE	MA2

BPM	0	0	145.000
MET	0	0	4	4

TAP	1	0	0
HLD	1	192	1	192
STR	2	0	0
SCL	2	0	0	96	192	5
TAP	3	0	7
HLD	3	192	5	192
TAP	4	0	0
TAP	4	96	0
TAP	4	192	0
BRK	4	288	0
BRK	4	288	7
TAP	5	0	0
TAP	5	96	1
TAP	5	192	2
TAP	5	288	3
TAP	6	0	4
TAP	6	96	5
TAP	6	192	6
TAP	6	288	0
TAP	6	288	7
TAP	7	0	7
TAP	7	96	6
TAP	7	192	5
TAP	7	288	4
TAP	8	0	3
TAP	8	96	2
TAP	8	192	1
TAP	8	288	0
TAP	8	336	0
TAP	9	0	0
TAP	9	96	2
TAP	9	192	4
TAP	9	288	6
TAP	10	0	7
TAP	10	96	5
TAP	10	192	3
TAP	10	288	1
HLD	11	0	0	192
HLD	11	192	7	192
TAP	12	0	1
TAP	12	96	6
BRK	12	192	0
BRK	12	192	7
TAP	13	0	1
TAP	13	96	0
TAP	13	192	1
TAP	13	288	2
TAP	14	0	6
TAP	14	96	7
TAP	14	192	6
TAP	14	288	5
TAP	15	0	4
TAP	15	96	3
TAP	15	192	2
TAP	15	288	2
TAP	16	0	1
TAP	16	96	0
STR	16	192	7
SCL	16	192	7	96	72	4
TAP	17	0	1
TAP	17	96	2
TAP	17	192	3
TAP	17	288	4
TAP	18	0	5
TAP	18	96	4
TAP	18	192	3
TAP	18	288	2
TAP	19	0	0
TAP	19	0	1
TAP	19	96	1
TAP	19	192	2
TAP	19	288	3
TAP	20	0	4
TAP	20	0	5
TAP	20	96	5
TAP	20	192	6
BRK	20	288	0
BRK	20	288	7
TAP	21	0	2
TAP	21	96	0
HLD	21	144	0	144
TAP	21	288	7
TAP	22	0	0
TAP	22	96	1
TAP	22	192	2
TAP	22	288	3
TAP	23	0	5
TAP	23	96	7
HLD	23	144	7	144
TAP	23	288	0
STR	24	0	7
SI_	24	0	7	96	72	3
STR	24	192	0
SI_	24	192	0	96	72	4
TAP	25	0	6
TAP	25	96	5
HLD	25	144	5	144
TAP	25	288	4
TAP	26	0	4
TAP	26	0	5
TAP	26	96	2
TAP	26	96	3
TAP	26	192	0
TAP	26	192	1
TAP	27	0	1
TAP	27	96	2
HLD	27	144	2	144
TAP	27	288	3
TAP	28	0	2
TAP	28	0	3
TAP	28	96	4
TAP	28	96	5
TAP	28	192	6
TAP	28	192	7
BRK	28	288	0
BRK	28	288	1
TAP	29	0	0
TAP	29	96	0
TAP	29	192	5
TAP	29	288	4
TAP	29	288	5
TAP	30	0	7
TAP	30	96	7
TAP	30	192	2
TAP	30	288	2
TAP	30	288	3
TAP	31	0	1
TAP	31	96	0
TAP	31	192	7
TAP	31	288	6
TAP	31	288	7
TAP	32	0	6
TAP	32	96	7
STR	32	192	0
SCR	32	192	0	96	72	3
TAP	33	0	5
TAP	33	96	5
STR	33	192	7
SI_	33	192	7	96	72	3
TAP	34	0	2
TAP	34	96	2
STR	34	192	0
SI_	34	192	0	96	72	4
TAP	35	0	6
TAP	35	96	6
TAP	35	96	7
TAP	35	192	0
TAP	35	192	5
TAP	35	288	0
TAP	35	288	1
BRK	36	0	2
BRK	36	0	7
TAP	37	0	2
TAP	37	96	1
HLD	37	192	0	96
TAP	37	288	7
TAP	38	0	5
TAP	38	96	6
HLD	38	192	7	96
TAP	38	288	0
TAP	39	0	2
TAP	39	0	5
TAP	39	96	1
TAP	39	96	6
HLD	39	192	0	96
HLD	39	192	7	96
STR	40	0	0
SI_	40	0	0	96	72	4
STR	40	192	7
SI_	40	192	7	96	72	3
STR	41	0	0
SCR	41	0	0	96	72	3
TAP	41	192	5
TAP	41	288	6
STR	42	0	7
SCL	42	0	7	96	72	4
TAP	42	192	2
TAP	42	288	1
HLD	43	0	0	96
TAP	43	96	7
TAP	43	192	6
TAP	43	288	5
TAP	44	0	0
TAP	44	96	1
TAP	44	192	2
TAP	44	240	2
BRK	44	288	2
TAP	45	0	7
TAP	45	48	7
TAP	45	96	7
TAP	45	192	3
TAP	45	240	3
TAP	45	288	3
TAP	46	0	4
TAP	46	48	4
TAP	46	96	4
TAP	46	192	0
TAP	46	240	0
TAP	46	288	0
TAP	47	0	6
TAP	47	48	6
TAP	47	96	6
TAP	47	192	2
TAP	47	240	2
TAP	47	288	2
TAP	48	0	5
TAP	48	48	5
TAP	48	96	1
TAP	48	144	1
TAP	48	192	7
TAP	48	240	7
TAP	48	288	0
TAP	49	0	1
TAP	49	48	1
TAP	49	96	0
TAP	49	192	6
TAP	49	240	6
TAP	49	288	7
TAP	50	0	2
TAP	50	48	2
TAP	50	96	3
TAP	50	192	5
TAP	50	240	5
TAP	50	288	4
STR	51	0	3
SI_	51	0	3	96	72	7
STR	51	192	4
SI_	51	192	4	96	72	0
TAP	52	0	7
TAP	52	96	1
TAP	52	96	6
TAP	52	192	2
TAP	52	192	5
BRK	52	288	3
BRK	52	288	4
HLD	53	0	0	384
TAP	53	288	4
HLD	54	0	4	384
TAP	54	288	1
HLD	55	0	1	288
TAP	55	288	5
TAP	56	0	5
TAP	56	96	5
TAP	56	192	5
BRK	56	288	5
HLD	57	0	2	384
TAP	57	288	6
HLD	58	0	6	384
TAP	58	288	3
HLD	59	0	3	288
TAP	59	288	7
TAP	60	0	7
TAP	60	96	7
BRK	60	192	0
BRK	60	192	7
TAP	61	0	0
TAP	61	96	1
TAP	61	192	2
TAP	61	288	3
TAP	61	336	3
TAP	62	0	7
TAP	62	96	6
TAP	62	192	5
TAP	62	288	4
TAP	62	336	4
TAP	63	0	4
TAP	63	96	3
TAP	63	192	2
TAP	63	288	1
TAP	63	336	1
TAP	64	0	0
TAP	64	0	1
TAP	64	96	0
TAP	64	96	1
TAP	64	192	6
TAP	64	192	7
TAP	64	288	6
TAP	64	288	7
TAP	65	0	2
TAP	65	96	7
TAP	65	192	0
TAP	65	288	5
TAP	66	0	0
TAP	66	96	2
TAP	66	192	4
TAP	66	288	6
TAP	67	0	5
TAP	67	96	3
TAP	67	192	1
STR	67	288	7
SI_	67	288	7	96	96	3
STR	69	0	0
SI_	69	0	0	96	72	3
STR	69	192	7
SI_	69	192	7	96	72	4
STR	70	0	1
SI_	70	0	1	96	72	5
STR	70	192	6
SI_	70	192	6	96	72	2
STR	71	0	0
SI_	71	0	0	96	72	4
STR	71	192	7
SI_	71	192	7	96	72	3
TAP	72	0	0
STR	72	96	0
SCR	72	96	0	96	72	3
STR	72	96	7
SCL	72	96	7	96	72	4
TAP	73	0	1
TAP	73	0	7
TAP	73	96	0
TAP	73	192	3
TAP	73	192	5
TAP	73	288	4
TAP	74	0	5
TAP	74	0	7
TAP	74	96	6
TAP	74	192	1
TAP	74	192	3
TAP	74	288	2
TAP	75	0	6
TAP	75	0	7
TAP	75	192	0
TAP	75	192	1
TAP	76	0	3
TAP	76	0	7
TAP	76	96	2
TAP	76	96	6
TAP	76	192	1
TAP	76	192	5
STR	76	288	0
SCR	76	288	0	96	96	3
STR	76	288	4
SCR	76	288	4	96	96	7

T_REC_TAP	251
T_REC_BRK	16
T_REC_XTP	0
T_REC_HLD	19
T_REC_XHO	0
T_REC_STR	24
T_REC_BST	0
T_REC_XST	0
T_REC_TTP	0
T_REC_THO	0
T_REC_SLD	24
T_REC_ALL	334
T_NUM_TAP	275
T_NUM_BRK	16
T_NUM_HLD	19
T_NUM_SLD	24
T_NUM_ALL	334
T_JUDGE_TAP	291
T_JUDGE_HLD	82
T_JUDGE_SLD	24
T_JUDGE_ALL	397
TTM_EACHPAIRS	42
TTM_SCR_TAP	137500
TTM_SCR_BRK	41600
TTM_SCR_HLD	19000
TTM_SCR_SLD	36000
TTM_SCR_ALL	234100
TTM_SCR_S	225550
TTM_SCR_SS	232500
TTM_RAT_ACV	10068

