VERSION	0.00.00	1.03.00
FES_MODE	0
BPM_DEF	145.000	145.000	145.000	145.000
MET_DEF	4	4
RESOLUTION	384
CLK_DEF	384
COMPATIBLE_CODE	MA2

BPM	0	0	145.000
MET	0	0	4	4

STR	4	0	4
SI_	4	0	4	96	144	0
TAP	5	0	7
TAP	5	192	6
TAP	6	0	0
TAP	6	192	1
TAP	7	0	3
TAP	7	192	2
TAP	8	0	4
TAP	8	192	5
TAP	9	0	7
TAP	9	192	6
TAP	10	0	0
TAP	10	192	1
TAP	13	0	0
TAP	13	192	6
TAP	14	0	7
TAP	14	192	1
TAP	15	0	2
TAP	15	192	3
TAP	16	0	4
TAP	16	192	5
TAP	17	0	4
TAP	17	192	2
TAP	18	0	3
TAP	18	192	5
TAP	19	0	6
TAP	19	192	7
TAP	20	0	6
TAP	20	192	5
STR	21	0	5
SI_	21	0	5	96	144	1
STR	22	0	2
SI_	22	0	2	96	144	6
STR	23	0	7
SI_	23	0	7	96	144	4
TAP	24	0	3
TAP	24	96	2
TAP	24	192	1
TAP	24	288	2
STR	25	0	1
SI_	25	0	1	96	144	5
STR	26	0	6
SI_	26	0	6	96	144	2
STR	27	0	3
SI_	27	0	3	96	144	7
TAP	28	0	6
TAP	28	0	7
TAP	29	0	0
TAP	29	96	1
TAP	29	192	2
TAP	30	0	1
TAP	30	96	2
TAP	30	192	3
TAP	31	0	2
TAP	31	96	3
TAP	31	192	4
HLD	32	0	5	192
TAP	33	0	7
TAP	33	96	6
TAP	33	192	5
TAP	34	0	4
TAP	34	0	5
TAP	34	96	4
TAP	34	96	5
TAP	34	192	4
TAP	34	192	5
TAP	35	0	2
TAP	35	0	3
TAP	35	96	2
TAP	35	96	3
TAP	35	192	2
TAP	35	192	3
BRK	36	0	3
BRK	36	0	4
HLD	37	0	1	288
HLD	38	0	0	288
HLD	39	0	7	288
TAP	40	0	7
TAP	40	96	6
TAP	40	192	5
TAP	40	288	4
HLD	41	0	3	288
HLD	42	0	2	288
HLD	43	0	1	288
STR	44	0	0
SI_	44	0	0	96	144	3
BRK	45	0	2
TAP	45	96	2
TAP	45	192	3
TAP	46	0	5
TAP	46	96	5
TAP	46	192	4
TAP	47	0	6
TAP	47	96	6
TAP	47	192	7
STR	48	0	0
SI_	48	0	0	96	144	4
TAP	49	0	5
TAP	49	96	5
TAP	49	192	4
TAP	50	0	2
TAP	50	96	2
TAP	50	192	3
TAP	51	0	1
TAP	51	96	1
TAP	51	192	0
STR	52	0	7
SI_	52	0	7	96	144	3
HLD	53	0	4	288
HLD	53	0	5	288
HLD	54	0	4	288
HLD	54	0	6	288
TAP	56	0	5
TAP	56	96	4
TAP	56	192	3
TAP	56	288	2
HLD	57	0	2	288
HLD	57	0	3	288
HLD	58	0	1	288
HLD	58	0	3	288
HLD	59	0	2	288
HLD	59	0	3	288
STR	60	0	3
SI_	60	0	3	96	144	7
TAP	61	0	0
TAP	61	96	1
TAP	61	192	2
TAP	62	0	1
TAP	62	96	2
TAP	62	192	3
TAP	63	0	2
TAP	63	96	3
TAP	63	192	4
HLD	64	0	5	192
TAP	65	0	7
TAP	65	96	6
TAP	65	192	5
TAP	66	0	4
TAP	66	0	5
TAP	66	96	4
TAP	66	96	5
TAP	66	192	4
TAP	66	192	5
HLD	67	0	3	288
HLD	67	0	4	288
STR	68	0	4
SI_	68	0	4	96	144	0
BRK	69	0	7
TAP	69	96	7
TAP	69	192	6
TAP	70	0	4
TAP	70	96	4
TAP	70	192	5
TAP	71	0	3
TAP	71	96	2
TAP	71	192	1
STR	72	0	0
SI_	72	0	0	96	144	4
TAP	73	0	3
TAP	73	96	3
TAP	73	192	2
TAP	74	0	0
TAP	74	96	0
TAP	74	192	1
TAP	75	0	7
TAP	75	96	6
TAP	75	192	5
TAP	75	288	4
TAP	76	0	4
STR	76	193	3
SI_	76	193	3	96	143	7

T_REC_TAP	120
T_REC_BRK	4
T_REC_XTP	0
T_REC_HLD	20
T_REC_XHO	0
T_REC_STR	14
T_REC_BST	0
T_REC_XST	0
T_REC_TTP	0
T_REC_THO	0
T_REC_SLD	14
T_REC_ALL	172
T_NUM_TAP	134
T_NUM_BRK	4
T_NUM_HLD	20
T_NUM_SLD	14
T_NUM_ALL	172
T_JUDGE_TAP	138
T_JUDGE_HLD	116
T_JUDGE_SLD	14
T_JUDGE_ALL	268
TTM_EACHPAIRS	17
TTM_SCR_TAP	67000
TTM_SCR_BRK	10400
TTM_SCR_HLD	20000
TTM_SCR_SLD	21000
TTM_SCR_ALL	118400
TTM_SCR_S	114500
TTM_SCR_SS	118000
TTM_RAT_ACV	10033

